Тор: Рагнарёк / Thor: Ragnarok (2017) BDRip 1080p | 60 fps Стражи Галактики. Часть 2 / Guardians of the Galaxy Vol. 2 (2017) BDRip 1080p | 60 fps Мстители: Эра Альтрона / Avengers: Age of Ultron (2015) BDRip 1080p | 60 fps Валериан и город тысячи планет / Valerian and the City of a Thousand Planets (2017) BDRip 1080p | 60 fps Первый мститель: Противостояние / Captain America: Civil War (2016) BDRip 1080p | 60 fps Человек-паук: Возвращение домой / Spider-Man: Homecoming (2017) BDRip 1080p | 60 fps Мстители / The Avengers (2012) BDRip 720p | 60 fps Доктор Стрэндж / Doctor Strange (2016) BDRip 1080p | 60 fps
  1. Стаж:
    3 года 9 месяцев
    Сообщений:
    2372
    Пол:
    Мужской
    «Он мстит бодро, весело и со вкусом» Информация
    Название: Жажда смерти
    Оригинальное название: Death Wish
    Год выхода: 2018
    Жанр: боевик, триллер, криминал
    Режиссер: Элай Рот
    Сценарий: Джо Карнахан, Уенделл Майес
    Продюсер: Роджер Бирнбаум, Стивен Дж
    В ролях: Брюс Уиллис, Винсент Д'Онофрио, Элизабет Шу, Камила Морроне, Дин Норрис, Бо Напп, Кимберли Элиз, Лен Кариу, Джек Кеси, Ронни Джин Блевинс

    Сюжет:
    Пол Керси - хирург, привыкший вытаскивать людей с того света после криминальных разборок. Но после того, как его жена и дочь становятся жертвами уличной банды, а полиция бездействует, он берет карающий меч правосудия в свои руки. Видео изобретательных убийств преступников покоряют интернет-топы, а среди жителей города расходятся слухи о неуловимом народном мстителе, которому теперь принадлежит весь город. Он мстит бодро, весело и со вкусом.

    Страна: США
    Продолжительность: 01:46:43

    Файл
    Кодек: H.264
    Формат: MKV
    Качество: BDRip 720p | 60 fps
    Видео: 1280 x 532 (2.406) | 59.940 fps | 10.0 Мбит/сек
    Аудио 01: AC3 | 5.1 | 48 kHz | 384 kbps | 16 bit | Дубляж - Line |
    Аудио 02: AC3 | 5.1 | 48 kHz | 448 kbps | 16 bit | english |
    Субтитры: английские

    MedifInfo

    Видео
    Идентификатор : 1
    Формат : AVC
    Формат/Информация : Advanced Video Codec
    Профиль формата : High@L4.1
    Параметр CABAC формата : Да
    Параметр ReFrames формата : 3 кадра
    Параметр GOP формата : M=3, N=59
    Идентификатор кодека : V_MPEG4/ISO/AVC
    Продолжительность : 1 ч. 46 м.
    Вид битрейта : Переменный
    Битрейт : 9567 Кбит/сек
    Максимальный битрейт : 10000 Кбит/сек
    Ширина : 1280 пикселей
    Высота : 532 пикселя
    Соотношение сторон : 2,40:1
    Режим частоты кадров : Постоянный
    Частота кадров : 59,880 кадров/сек
    Частота кадров в оригинале : 59,940 кадров/сек
    Стандарт вещания : PAL
    Цветовое пространство : YUV
    Субдискретизация насыщенности : 4:2:0
    Битовая глубина : 8 бит
    Тип развёртки : Прогрессивная
    Бит/(Пиксели*Кадры) : 0.235
    Размер потока : 7,13 Гбайт (92%)
    Заголовок : www.60-fps.org
    Язык : English
    Default : Да
    Forced : Нет
    Основные цвета : BT.601 NTSC
    Характеристики трансфера : BT.601
    Коэффициенты матрицы : BT.601
    colour_range : Limited
    Аудио #1
    Идентификатор : 2
    Формат : AC-3
    Формат/Информация : Audio Coding 3
    Расширение режима : CM (complete main)
    Параметр Endianness формата : Big
    Идентификатор кодека : A_AC3
    Продолжительность : 1 ч. 46 м.
    Вид битрейта : Постоянный
    Битрейт : 192 Кбит/сек
    Каналы : 2 канала
    Расположение каналов : Front: L R
    Частота : 48,0 КГц
    Битовая глубина : 16 бит
    Метод сжатия : С потерями
    Размер потока : 147 Мбайт (2%)
    Заголовок : Дубляж - Line
    Язык : Russian
    Default : Да
    Forced : Нет
    Аудио #2
    Идентификатор : 3
    Формат : AC-3
    Формат/Информация : Audio Coding 3
    Расширение режима : CM (complete main)
    Параметр Endianness формата : Big
    Идентификатор кодека : A_AC3
    Продолжительность : 1 ч. 46 м.
    Вид битрейта : Постоянный
    Битрейт : 448 Кбит/сек
    Каналы : 6 каналов
    Расположение каналов : Front: L C R, Side: L R, LFE
    Частота : 48,0 КГц
    Битовая глубина : 16 бит
    Метод сжатия : С потерями
    Размер потока : 342 Мбайт (4%)
    Заголовок : english
    Язык : English
    Default : Нет
    Forced : Нет
    Текст
    Идентификатор : 4
    Формат : UTF-8
    Идентификатор кодека : S_TEXT/UTF8
    Идентификатор кодека/Информация : UTF-8 Plain Text
    Язык : English
    Default : Нет
    Forced : Нет
    Меню
    00:00:00.000 : en:00:00:00.000
    00:05:39.089 : en:00:05:39.089
    00:08:51.239 : en:00:08:51.239
    00:11:55.798 : en:00:11:55.798
    00:19:12.860 : en:00:19:12.860
    00:24:34.139 : en:00:24:34.139
    00:28:37.174 : en:00:28:37.174
    00:32:45.964 : en:00:32:45.964
    00:36:15.840 : en:00:36:15.840
    00:43:49.168 : en:00:43:49.168
    00:47:10.411 : en:00:47:10.411
    00:53:49.518 : en:00:53:49.518
    00:56:56.330 : en:00:56:56.330
    01:00:27.082 : en:01:00:27.082
    01:07:55.154 : en:01:07:55.154
    01:11:16.564 : en:01:11:16.564
    01:15:52.256 : en:01:15:52.256
    01:19:23.926 : en:01:19:23.926
    01:22:41.415 : en:01:22:41.415
    01:25:43.889 : en:01:25:43.889
    01:28:20.837 : en:01:28:20.837
    01:31:24.813 : en:01:31:24.813
    01:37:14.537 : en:01:37:14.537
    01:40:07.585 : en:01:40:07.585

    Релиз подготовлен 60 - fps



Вы не можете начинать темы
Вы не можете отвечать на сообщения
Вы не можете редактировать свои сообщения
Вы не можете удалять свои сообщения
Вы не можете голосовать в опросах
Вы не можете прикреплять файлы к сообщениям
Вы не можете скачивать файлы