[Цитировать]
Kryl

«По мотивам трогательной истории дельфина по имени Уинтер»- Информация о фильме
Название: История дельфина
Оригинальное название: Dolphin Tale
Год выхода: 2011
Жанр: Драма, семейный
Режиссер: Чарльз Мартин Смит
Продюсер: Ричард Ингбер, Бродерик Джонсон, Эндрю А. Косов
Сценарий: Карен Джансзен, Ноам Дроми
В ролях:
Гарри Конник мл., Эшли Джадд, Нэйтан Гэмбл, Крис Кристофферсон, Кози Цуельсдорфф, Морган Фриман, Остин Стоуэлл, Фрэнсис Стернхаген
--О фильме:
Мальчик Сойер находит раненого дельфина, выброшенного на берег. Его отвозят в больницу для морских животных и дают ему кличку Уинтер. Из-за полученной травмы дельфин лишается хвоста, что делает его выживание практически невозможным. Но благодаря преданному другу Сойеру, опытному морскому биологу и гениальному протезисту, создавшему новый хвост, Уинтеру удается вернуться к нормальной жизни.- - Страна: США
Продолжительность: 01:52:39
--Файл
Кодек: MPEG4/ISO/AVC H.264
Формат: MKV
Качество: BDRip 1080p
Видео: 1920x1080 | 59.940 fps | 14.2 Мбит/сек
Аудио : AC3 | 5.1 | 48 kHz | 384 kbps | 16 bit | Дубляж |

MedifInfo

Video
ID : 1
Format : AVC
Format/Info : Advanced Video Codec
Format profile : High@L4.1
Format settings, CABAC : Yes
Format settings, ReFrames : 4 frames
Muxing mode : Container profile=Unknown@4.1
Codec ID : V_MPEG4/ISO/AVC
Duration : 1h 52mn
Bit rate : 14.2 Mbps
Width : 1 920 pixels
Height : 1 080 pixels
Display aspect ratio : 16:9
Frame rate : 59.940 fps
Color space : YUV
Chroma subsampling : 4:2:0
Bit depth : 8 bits
Scan type : Progressive
Bits/(Pixel*Frame) : 0.115
Stream size : 11.2 GiB (95%)
Writing library : x264 core 130 r2273 b3065e6
Encoding settings : cabac=1 / ref=4 / deblock=1:0:0 / analyse=0x3:0 / me=umh / subme=9 / psy=1 / psy_rd=1.00:0.10 / mixed_ref=1 / me_range=42 / chroma_me=0 / trellis=1 / 8x8dct=1 / cqm=0 / deadzone=21,11 / fast_pskip=0 / chroma_qp_offset=-3 / threads=12 / lookahead_threads=1 / sliced_threads=0 / nr=0 / decimate=0 / interlaced=0 / bluray_compat=0 / constrained_intra=0 / bframes=5 / b_pyramid=2 / b_adapt=2 / b_bias=0 / direct=1 / weightb=1 / open_gop=0 / weightp=2 / keyint=594 / keyint_min=59 / scenecut=40 / intra_refresh=0 / rc=crf / mbtree=0 / crf=18.0 / qcomp=0.60 / qpmin=0 / qpmax=69 / qpstep=4 / ip_ratio=1.40 / pb_ratio=1.30 / aq=1:0.90
Audio
ID : 2
Format : AC-3
Format/Info : Audio Coding 3
Mode extension : CM (complete main)
Codec ID : A_AC3
Duration : 1h 52mn
Bit rate mode : Constant
Bit rate : 384 Kbps
Channel(s) : 6 channels
Channel positions : Front: L C R, Side: L R, LFE
Sampling rate : 48.0 KHz
Bit depth : 16 bits
Stream size : 309 MiB (3%)
Language : Russian
Автор рипа Ressident

Релиз подготовлен 60 - fps

 
Показать сообщения:    

Текущее время: 03-Дек 16:42

Часовой пояс: UTC + 3


Вы не можете начинать темы
Вы не можете отвечать на сообщения
Вы не можете редактировать свои сообщения
Вы не можете удалять свои сообщения
Вы не можете голосовать в опросах
Вы не можете прикреплять файлы к сообщениям
Вы не можете скачивать файлы