[Цитировать]
BOT2

Искатели могил

Искатели могил / Grave Encounters
-Год выпуска: 2010
Страна: Канада
Жанр: ужасы, триллер
Продолжительность: 01:33:33
Перевод: Профессиональный многоголосый
Субтитры: русские (Полные)-Режиссер: Колин Минихан / Colin Minihan, Стюарт Ортиз / Stuart Ortiz, Братья Вишес / The Vicious Brothers-В ролях: Шон Роджерсон (Lance Preston), Мервин Мондесер (T.C. Gibson), Эшли Грызко (Sasha Parker), МакКензи Грэй (Houston Gray), Хуан Ридингер (Matt White), Бен Уилкинсон (Jerry Hartfield), Шон МакДональд (Morgan Turner), Артур Корбер (Dr. Arthur Friedkin), Боб Рэти (Kenny Sandavol), Фред Китинг (Gary Crawford), Макс Трэйн (Punk Guy), Марта Изон (Punk Girl)-Описание:
Участники телевизионного шоу охотников за привидениями «Искатели» во главе с Лэнсом Прэстоном соглашаются провести ночь в психиатрической лечебнице, о которой давно ходят жуткие легенды. Запертые на ночь в большом здании больницы «искатели» быстро обнаружили, что теперь бороться с призраками придется всерьез, а не понарошку, так что дожить до утра у них нет никаких шансов...- -Релиз by: -Качество: BDRip-AVC 60fps
Формат: MKV
Видео кодек: AVC
Аудио кодек:AC3
Видео: AVC, 1024x576 (16:9), 5300 kbps, 59,997 fps, 0,150 bpp
Аудио: русский / AC3 / 5.1 / 48 kHz / 384 kbps / 16 bit |Многоголосый, закадровый R9|
Навигация по главам: есть--

MI

General
Unique ID : 239371402285659110308790710986062588119 (0xB41541517518B633A1E3FB691C5268D7)
Complete name : B:\Искатели могил BDRip-AVC 60fps\Искатели могил 1.mkv
Format : Matroska
Format version : Version 4 / Version 2
File size : 3.72 GiB
Duration : 1h 33mn
Overall bit rate : 5 689 Kbps
Movie name : R.G HD-Films by Tiberiumsun69
Encoded date : UTC 2015-05-21 12:08:10
Writing application : mkvmerge v7.9.0 ('Birds') 64bit
Writing library : libebml v1.3.1 + libmatroska v1.4.2
Attachment : Yes
Video
ID : 1
Format : AVC
Format/Info : Advanced Video Codec
Format profile : High@L4.1
Format settings, CABAC : Yes
Format settings, ReFrames : 4 frames
Codec ID : V_MPEG4/ISO/AVC
Duration : 1h 33mn
Bit rate : 5 300 Kbps
Width : 1 024 pixels
Height : 576 pixels
Display aspect ratio : 16:9
Frame rate : 59.997 fps
Color space : YUV
Chroma subsampling : 4:2:0
Bit depth : 8 bits
Scan type : Progressive
Bits/(Pixel*Frame) : 0.150
Stream size : 3.39 GiB (91%)
Writing library : x264 core 146 r2538 121396c
Encoding settings : cabac=1 / ref=4 / deblock=1:0:0 / analyse=0x3:0x113 / me=umh / subme=11 / psy=1 / psy_rd=1.00:0.10 / mixed_ref=1 / me_range=32 / chroma_me=1 / trellis=2 / 8x8dct=1 / cqm=0 / deadzone=21,11 / fast_pskip=0 / chroma_qp_offset=-3 / threads=12 / lookahead_threads=1 / sliced_threads=0 / nr=0 / decimate=1 / interlaced=0 / bluray_compat=0 / constrained_intra=0 / bframes=3 / b_pyramid=2 / b_adapt=2 / b_bias=0 / direct=3 / weightb=1 / open_gop=0 / weightp=2 / keyint=600 / keyint_min=59 / scenecut=40 / intra_refresh=0 / rc_lookahead=60 / rc=2pass / mbtree=1 / bitrate=5300 / ratetol=1.0 / qcomp=0.60 / qpmin=0 / qpmax=69 / qpstep=4 / cplxblur=20.0 / qblur=0.5 / vbv_maxrate=50000 / vbv_bufsize=62500 / nal_hrd=none / filler=0 / ip_ratio=1.40 / aq=1:1.00
Language : English
Default : Yes
Forced : No
Audio
ID : 2
Format : AC-3
Format/Info : Audio Coding 3
Mode extension : CM (complete main)
Codec ID : A_AC3
Duration : 1h 33mn
Bit rate mode : Constant
Bit rate : 384 Kbps
Channel(s) : 6 channels
Channel positions : Front: L C R, Side: L R, LFE
Sampling rate : 48.0 KHz
Bit depth : 16 bits
Compression mode : Lossy
Stream size : 257 MiB (7%)
Title : Многоголосый, закадровый R5
Language : Russian
Default : Yes
Forced : No
Text
ID : 3
Format : UTF-8
Codec ID : S_TEXT/UTF8
Codec ID/Info : UTF-8 Plain Text
Title : Полные
Language : Russian
Default : No
Forced : No
Menu
00:00:00.000 : en:Chapter 1
00:11:54.583 : en:Chapter 2
00:23:23.416 : en:Chapter 3
00:35:38.208 : en:Chapter 4
00:47:53.000 : en:Chapter 5
00:58:50.541 : en:Chapter 6
01:10:35.791 : en:Chapter 7
01:22:15.957 : en:Chapter 8

Искатели могил 2

Искатели могил 2 / Grave Encounters 2
-Год выпуска: 2012
Страна: Канада, США
Жанр: ужасы
Продолжительность: 01:38:46
Перевод: Профессиональный многоголосый
Субтитры: русские (Полные)-Режиссер: Джон Поликуин / John Poliquin-В ролях: Ричард Хэрмон (Alex Wright), Лиэнн Лэпп (Jennifer Parker), Шон Роджерсон (Sean Rogerson (Lance Preston)), Дилан Плэйфейр (Trevor Thompson), Стефани Беннетт (Tessa Hamill), Хоуи Лаи (Jared Lee), Шон Тайсон (Hospital Security Guard), Бен Уилкинсон (Jerry Hartfield), Артур Корбер (Dr. Friedkin), Бренда МакДональд (Delia Rogerson), Шон С. Филлипс (Vlogger), Дженника Фултон (Vlogger)-Описание:
В руки к режиссёру-юнцу Алексу попадает фильм ужасов «Искатели могил». Кино не производит на него впечатления, но отношение Алекса меняется, когда ему анонимно присылают странный видеоролик, смахивающий на вырезанную сценку из «Искателей». Заинтересовавшись посланием, Алекс пытается найти создателей хитового ужастика.
Тщетность этих попыток наталкивает парня на мысль, что снятое в «Искателях» произошло на самом деле, и авторы фильма мертвы. Продолжая расследование и получая новые доказательства своей теории, Алекс решается на последний шаг: он предлагает своим друзьям забраться в ту самую заброшенную психушку, где снимались «Искатели могил».- -Релиз by:
Качество: BDRip-AVC 60fps
Формат: MKV
Видео кодек: AVC
Аудио кодек:AC3
Видео: AVC, 1024x576 (16:9), 5000 kbps, 59,940 fps, 0,141 bpp
Аудио: русский / AC3 / 5.1 / 48 kHz / 384 kbps / 16 bit |Многоголосый, закадровый R9|
Навигация по главам: есть-

MI

General
Unique ID : 237012635241788182016444375305178610526 (0xB24EF91FC53DA9B7978BE201CC207B5E)
Complete name : B:\Искатели могил BDRip-AVC 60fps\Искатели могил 2.mkv
Format : Matroska
Format version : Version 4 / Version 2
File size : 3.71 GiB
Duration : 1h 38mn
Overall bit rate : 5 382 Kbps
Movie name : R.G HD-FIlms by Tiberiumsun69
Encoded date : UTC 2015-05-21 12:52:19
Writing application : mkvmerge v7.9.0 ('Birds') 64bit
Writing library : libebml v1.3.1 + libmatroska v1.4.2
Attachment : Yes
Video
ID : 1
Format : AVC
Format/Info : Advanced Video Codec
Format profile : High@L4.1
Format settings, CABAC : Yes
Format settings, ReFrames : 4 frames
Codec ID : V_MPEG4/ISO/AVC
Duration : 1h 38mn
Bit rate : 5 000 Kbps
Width : 1 024 pixels
Height : 576 pixels
Display aspect ratio : 16:9
Frame rate : 59.940 fps
Color space : YUV
Chroma subsampling : 4:2:0
Bit depth : 8 bits
Scan type : Progressive
Bits/(Pixel*Frame) : 0.141
Stream size : 3.37 GiB (91%)
Title : R.G HD-Films by Tiberiumsun69
Writing library : x264 core 146 r2538 121396c
Encoding settings : cabac=1 / ref=4 / deblock=1:-2:-1 / analyse=0x3:0x113 / me=umh / subme=11 / psy=1 / psy_rd=1.00:0.20 / mixed_ref=1 / me_range=32 / chroma_me=1 / trellis=2 / 8x8dct=1 / cqm=0 / deadzone=21,11 / fast_pskip=0 / chroma_qp_offset=-3 / threads=12 / lookahead_threads=1 / sliced_threads=0 / nr=0 / decimate=0 / interlaced=0 / bluray_compat=0 / constrained_intra=0 / bframes=3 / b_pyramid=2 / b_adapt=2 / b_bias=0 / direct=3 / weightb=1 / open_gop=0 / weightp=2 / keyint=600 / keyint_min=59 / scenecut=40 / intra_refresh=0 / rc_lookahead=60 / rc=2pass / mbtree=1 / bitrate=5000 / ratetol=1.0 / qcomp=0.60 / qpmin=0 / qpmax=69 / qpstep=4 / cplxblur=20.0 / qblur=0.5 / vbv_maxrate=50000 / vbv_bufsize=62500 / nal_hrd=none / filler=0 / ip_ratio=1.40 / aq=1:1.00
Language : English
Default : Yes
Forced : No
Audio
ID : 2
Format : AC-3
Format/Info : Audio Coding 3
Mode extension : CM (complete main)
Codec ID : A_AC3
Duration : 1h 38mn
Bit rate mode : Constant
Bit rate : 384 Kbps
Channel(s) : 6 channels
Channel positions : Front: L C R, Side: L R, LFE
Sampling rate : 48.0 KHz
Bit depth : 16 bits
Compression mode : Lossy
Stream size : 271 MiB (7%)
Title : Многоголосый, закадровый R9
Language : Russian
Default : Yes
Forced : No
Text
ID : 3
Format : UTF-8
Codec ID : S_TEXT/UTF8
Codec ID/Info : UTF-8 Plain Text
Title : Полные
Language : Russian
Default : No
Forced : No
Menu
00:00:00.000 : :Chapter 01
00:11:07.333 : :Chapter 02
00:22:58.585 : :Chapter 03
00:33:15.118 : :Chapter 04
00:44:38.008 : :Chapter 05
00:54:47.409 : :Chapter 06
01:09:05.724 : :Chapter 07
01:20:58.979 : :Chapter 08
01:34:02.637 : :Chapter 09
[60-fps.org].t698.torrent
Торрент: Зарегистрирован [ 2015-05-21 20:21 ] · 31542B27E4A35FC02963CAEA1FBFEEA72D59F138

Скачать .torrent

Скачать

38 KB

Статус: проверено
Скачан: 12 раз
Поблагодарили:
Размер: 7,43 GB
 

[Цитировать]
vbutov

Помогите скачать, хотя бы первую часть. Третий день жду, всего 3% накапало...

[Цитировать]
Андрей1982

Я удалил из торрента скачки все фильмы, как мне пустить теперь новую раздачу

[Цитировать]
Kryl

5599Я удалил из торрента скачки все фильмы, как мне пустить теперь новую раздачу
Скачать торрент файл и указать директорию где лежит фильм . если не меняли название то торрент клиент проверит файл и поставит на раздачу .
 
Показать сообщения:    

Текущее время: 22-Фев 04:41

Часовой пояс: UTC + 3


Вы не можете начинать темы
Вы не можете отвечать на сообщения
Вы не можете редактировать свои сообщения
Вы не можете удалять свои сообщения
Вы не можете голосовать в опросах
Вы не можете прикреплять файлы к сообщениям
Вы можете скачивать файлы