Топ Топиков за 24 часа
 
Luis Fonsi - Despacito ft. Daddy Yankee (2017) WEBRip 1080p | 60 fps Jennifer Lopez feat. Gente de Zona - Ni Tu Ni Yo (2017) WEBRip 1080p | 60 fps Katy Perry - Dark Horse (2014) Full HD 1080p | 60 fps DJ Khaled feat. Rihanna & Bryson Tiller - Wild Thoughts (2017) Full HD 1080p | 60 fps Iggy Azalea - Mo Bounce (2017) Full HD 1080p | 60 fps Inna - Gimme Gimme (2017) Full HD 1080p | 60 fps Loboda - Твои Глаза (2016) WEBRip 1080p | 60 fps Rihanna - Needed Me (2016) Full HD 1080p | 60 fps Spice Girls - Wannabe (1996) Full HD 1080p | 60 fps Jennifer Lopez - I'm Into You ft. Lil Wayne (2011) Full HD 1080p | 60 fps Taylor Swift - Look What You Made Me Do (2017) WEBRip 1080p | 60 fps Serebro - Мама Люба давай (2011) Full HD 1080p | 60 fps
  1. Стаж:
    2 года 10 месяцев
    Сообщений:
    284
    Пол:
    Мужской
     
    Иракли feat. St1m - Я это ты (Мурат Насыров cover) (2014) Full HD 1080p | 60 fps

    Информация о Клипе:
    Исполнители:Иракли feat. St1m
    Название:Я это ты (Мурат Насыров cover)
    Год выпуска: 2014 г.
    Жанр: Поп
    Страна: Россия
    Продолжительность: 03.47мин

    Файл:
    Формат видео: MKV
    Качество видео: Full HD 1080p | 60 fps
    Видео кодек: H.264
    Аудио кодек: AC3
    Видео: 1920x1080 | 59.940 fps | 6838 Кбит/сек
    Аудио: AC3 | 2 channels | 48 kHz |384 Кбит/сек

    Отчёт MediaInfo

    Видео
    Идентификатор : 1
    Формат : AVC
    Формат/Информация : Advanced Video Codec
    Профиль формата : High@L4.1
    Параметр CABAC формата : Да
    Параметр ReFrames формата : 4 кадра
    Идентификатор кодека : V_MPEG4/ISO/AVC
    Продолжительность : 3 м. 47 с.
    Битрейт : 6838 Кбит/сек
    Ширина : 1920 пикселей
    Высота : 1080 пикселей
    Соотношение сторон : 16:9
    Режим частоты кадров : Постоянный
    Частота кадров : 59,880 кадров/сек
    Частота кадров в оригинале : 59,940 кадров/сек
    Цветовое пространство : YUV
    Субдискретизация насыщенности : 4:2:0
    Битовая глубина : 8 бит
    Тип развёртки : Прогрессивная
    Бит/(Пиксели*Кадры) : 0.055
    Размер потока : 186 Мбайт (93%)
    Заголовок : Rip By Kamikkadze(Специально для Сайта 60-fps.org)
    Библиотека кодирования : x264 core 130 r2273 b3065e6
    Настройки программы : cabac=1 / ref=4 / deblock=1:-1:-1 / analyse=0x3:0x113 / me=umh / subme=7 / psy=1 / psy_rd=1.00:0.10 / mixed_ref=1 / me_range=16 / chroma_me=1 / trellis=2 / 8x8dct=1 / cqm=0 / deadzone=21,11 / fast_pskip=0 / chroma_qp_offset=-3 / threads=6 / lookahead_threads=1 / sliced_threads=0 / nr=0 / decimate=1 / interlaced=0 / bluray_compat=0 / constrained_intra=0 / bframes=3 / b_pyramid=2 / b_adapt=2 / b_bias=0 / direct=3 / weightb=1 / open_gop=0 / weightp=2 / keyint=250 / keyint_min=25 / scenecut=40 / intra_refresh=0 / rc_lookahead=50 / rc=crf / mbtree=1 / crf=21.0 / qcomp=0.60 / qpmin=0 / qpmax=69 / qpstep=4 / vbv_maxrate=50000 / vbv_bufsize=50000 / crf_max=0.0 / nal_hrd=none / ip_ratio=1.40 / aq=1:1.00
    Язык : Russian
    Default : Да
    Forced : Нет
    Аудио
    Идентификатор : 2
    Формат : AC-3
    Формат/Информация : Audio Coding 3
    Расширение режима : CM (complete main)
    Параметр Endianness формата : Big
    Идентификатор кодека : A_AC3
    Продолжительность : 3 м. 47 с.
    Вид битрейта : Постоянный
    Битрейт : 384 Кбит/сек
    Каналы : 6 каналов
    Расположение каналов : Front: L C R, Side: L R, LFE
    Частота : 48,0 КГц
    Битовая глубина : 16 бит
    Метод сжатия : С потерями
    Размер потока : 10,4 Мбайт (5%)
    Заголовок : Rip By Kamikkadze(Специально для Сайта 60-fps.org)
    Язык : Russian
    Default : Да
    Forced : Нет

    Скриншоты

  2. Стаж:
    3 года 1 месяц
    Сообщений:
    2088
    Пол:
    Мужской
     
    [adm]Так BDRip или Master 1080p ?[/adm]
    16-Мар-2015 23:33 (спустя 43 минуты)
  3. Стаж:
    2 года 10 месяцев
    Сообщений:
    284
    Пол:
    Мужской
     
    Master это,надпись bd rip скопировалось с рутора,там модеры чет начудили и я тут накосячил немного)
    16-Мар-2015 23:36 (спустя 3 минуты)
  4. Стаж:
    3 года 1 месяц
    Сообщений:
    2088
    Пол:
    Мужской
     
    Там модеры не знаю что такой формат есть :ag:
    Привыкли к экранкам :ag:
    17-Мар-2015 00:01 (спустя 25 минут)
  5. Стаж:
    2 года 10 месяцев
    Сообщений:
    284
    Пол:
    Мужской
     
    Привыкли к экранкам
    Вот и я не пойму раздачу до сих пор не пускают пишу мастер,исправляют то bd, то webrip
    17-Мар-2015 00:16 (спустя 14 минут)
  6. Стаж:
    3 года 1 месяц
    Сообщений:
    2088
    Пол:
    Мужской
     
    Так ты напиши что bd, , и поскриптум в раздаче что мастер ...
    17-Мар-2015 00:23 (спустя 6 минут)


Вы не можете начинать темы
Вы не можете отвечать на сообщения
Вы не можете редактировать свои сообщения
Вы не можете удалять свои сообщения
Вы не можете голосовать в опросах
Вы не можете прикреплять файлы к сообщениям
Вы не можете скачивать файлы