Чёрная Пантера / Black Panther (2018) BDRip 720p | 60 fps Чёрная Пантера / Black Panther (2018) BDRip 1080p | 60 fps Валериан и город тысячи планет / Valerian and the City of a Thousand Planets (2017) BDRip 1080p | 60 fps Стражи Галактики. Часть 2 / Guardians of the Galaxy Vol. 2 (2017) BDRip 1080p | 60 fps Тор: Рагнарёк / Thor: Ragnarok (2017) BDRip 1080p | 60 fps Доктор Стрэндж / Doctor Strange (2016) BDRip 1080p | 60 fps Первый мститель: Противостояние / Captain America: Civil War (2016) BDRip 1080p | 60 fps Гарри Поттер: Коллекция / Harry Potter: Collection (2001-2011) BDRip-AVC | 60 fps
  1. Стаж:
    3 года 9 месяцев
    Сообщений:
    2363
    Пол:
    Мужской
    «Иногда месть — это лучшая справедливость» Информация
    Название: Иностранец
    Оригинальное название: The Foreigner
    Год выхода: 2017
    Жанр: Боевик, триллер, драма
    Режиссер: Мартин Кэмпбелл
    Сценарий: Дэвид Маркони, Стефен Лезер
    Продюсер: Орен Авив, Phillip Button, Джеки Чан
    В ролях: Джеки Чан, Пирс Броснан, Майкл МакЭлхаттон, Тао Лю, Чарли Мёрфи, Орла Брэйди, Кэти Льюнг, Рэй Фиарон, Руфус Джонс, Марк Тэнди, Джон Кронин, Каолан Бирн, Донна Бернард, Аарон Монахэн, Ниал МакНэми, Лия Уильямс, Дэвид Пирс, Скотт Спэрроу, Пиппа Беннетт-Уорнер

    Сюжет:
    Бывший спецагент, ветеран вьетнамской войны Цюань давно сложил оружие и завел мирную жизнь. Но после того, как в теракте прямо на глазах погибает его дочь-подросток, видя, что власти не спешат разыскивать преступников, Цюань сам начинает поиск убийцы. Он пойдет на все, чтобы совершить праведное возмездие…

    Страна: Великобритания, Китай, США
    Продолжительность: 01:53:52

    Файл
    Кодек: H.264 | High@L4.1
    Формат: MKV
    Качество: BDRip 720p | 60 fps
    Видео: 1280 x 536 (2.388) | 60.000 fps | 10.0 Мбит/сек
    Аудио 01: AC3 | 5.1 | 48 kHz | 384 kbps | 16 bit | Дубляж - iTunes |
    Аудио 02: AC3 | 5.1 | 48 kHz | 448 kbps | 16 bit | english |
    Субтитры: английские

    MedifInfo

    Видео
    Идентификатор : 1
    Формат : AVC
    Формат/Информация : Advanced Video Codec
    Профиль формата : High@L4.1
    Параметр CABAC формата : Да
    Параметр ReFrames формата : 3 кадра
    Идентификатор кодека : V_MPEG4/ISO/AVC
    Продолжительность : 1 ч. 53 м.
    Вид битрейта : Переменный
    Битрейт : 9578 Кбит/сек
    Максимальный битрейт : 10000 Кбит/сек
    Ширина : 1280 пикселей
    Высота : 536 пикселей
    Соотношение сторон : 2,40:1
    Режим частоты кадров : Постоянный
    Частота кадров : 59,880 кадров/сек
    Частота кадров в оригинале : 59,940 кадров/сек
    Стандарт вещания : PAL
    Цветовое пространство : YUV
    Субдискретизация насыщенности : 4:2:0
    Битовая глубина : 8 бит
    Тип развёртки : Прогрессивная
    Бит/(Пиксели*Кадры) : 0.233
    Размер потока : 7,62 Гбайт (90%)
    Заголовок : www.60-fps.org
    Язык : English
    Default : Да
    Forced : Нет
    Основные цвета : BT.601 NTSC
    Характеристики трансфера : BT.601
    Коэффициенты матрицы : BT.601
    colour_range : Limited
    Аудио #1
    Идентификатор : 2
    Формат : AC-3
    Формат/Информация : Audio Coding 3
    Расширение режима : CM (complete main)
    Параметр Endianness формата : Big
    Идентификатор кодека : A_AC3
    Продолжительность : 1 ч. 53 м.
    Вид битрейта : Постоянный
    Битрейт : 384 Кбит/сек
    Каналы : 6 каналов
    Расположение каналов : Front: L C R, Side: L R, LFE
    Частота : 48,0 КГц
    Битовая глубина : 16 бит
    Метод сжатия : С потерями
    Размер потока : 313 Мбайт (4%)
    Заголовок : Дубляж - iTunes
    Язык : Russian
    Default : Да
    Forced : Нет
    Аудио #2
    Идентификатор : 3
    Формат : AC-3
    Формат/Информация : Audio Coding 3
    Расширение режима : CM (complete main)
    Параметр Endianness формата : Big
    Идентификатор кодека : A_AC3
    Продолжительность : 1 ч. 53 м.
    Вид битрейта : Постоянный
    Битрейт : 448 Кбит/сек
    Каналы : 6 каналов
    Расположение каналов : Front: L C R, Side: L R, LFE
    Частота : 48,0 КГц
    Битовая глубина : 16 бит
    Метод сжатия : С потерями
    Размер потока : 365 Мбайт (4%)
    Заголовок : english
    Язык : English
    Default : Нет
    Forced : Нет
    Текст
    Идентификатор : 4
    Формат : UTF-8
    Идентификатор кодека : S_TEXT/UTF8
    Идентификатор кодека/Информация : UTF-8 Plain Text
    Заголовок : Full
    Язык : English
    Default : Нет
    Forced : Нет
    Меню
    00:00:00.000 : en:00:00:00.000
    00:08:19.541 : en:00:08:19.541
    00:15:49.574 : en:00:15:49.574
    00:21:47.765 : en:00:21:47.765
    00:27:04.164 : en:00:27:04.164
    00:32:09.511 : en:00:32:09.511
    00:35:24.164 : en:00:35:24.164
    00:38:30.934 : en:00:38:30.934
    00:43:50.169 : en:00:43:50.169
    00:47:38.189 : en:00:47:38.189
    00:54:10.497 : en:00:54:10.497
    01:01:42.324 : en:01:01:42.324
    01:08:07.333 : en:01:08:07.333
    01:14:14.033 : en:01:14:14.033
    01:18:42.927 : en:01:18:42.927
    01:23:26.877 : en:01:23:26.877
    01:29:18.812 : en:01:29:18.812
    01:38:55.012 : en:01:38:55.012
    01:43:45.928 : en:01:43:45.928
    01:47:09.298 : en:01:47:09.298

    Релиз подготовлен 60 - fps



Вы не можете начинать темы
Вы не можете отвечать на сообщения
Вы не можете редактировать свои сообщения
Вы не можете удалять свои сообщения
Вы не можете голосовать в опросах
Вы не можете прикреплять файлы к сообщениям
Вы не можете скачивать файлы