[Цитировать]
Kryl

-INNA - Wow (2012) HDTVRip 1080p | 60 fps- -Информация о Клипе
Исполнитель: INNA
Название: Wow
Год выхода: 2012
Продолжительность: 00:04:52-Файл
Кодек: MPEG4/ISO/AVC/ H.264
Формат: MKV
Качество: HDTVRip 1080p
Видео : 1920 x 1080 (1.778) at 60.000 fps ~19.4 Мбит/сек
Аудио : MP3 | 264 Кбит/сек | 44.1 KHz | 2.0 channels

MI

Видео
Идентификатор : 1
Формат : AVC
Формат/Информация : Advanced Video Codec
Профиль формата : Main@L4.2
Параметр CABAC формата : Да
Параметр ReFrames формата : 3 кадра
Идентификатор кодека : V_MPEG4/ISO/AVC
Продолжительность : 4 м. 52 с.
Битрейт : 19,4 Мбит/сек
Ширина : 1920 пикселей
Высота : 1080 пикселей
Соотношение сторон : 16:9
Режим частоты кадров : Постоянный
Частота кадров : 60,000 кадров/сек
Стандарт вещания : PAL
Цветовое пространство : YUV
Субдискретизация насыщенности : 4:2:0
Битовая глубина : 8 бит
Тип развёртки : Прогрессивная
Бит/(Пиксели*Кадры) : 0.156
Размер потока : 677 Мбайт (97%)
Заголовок : www.60-fps.org
Язык : English
Default : Да
Forced : Нет
Основные цвета : BT.709
Характеристики трансфера : BT.709
Коэффициенты матрицы : BT.709
colour_range : Limited
Аудио
Идентификатор : 2
Формат : MPEG Audio
Версия формата : Version 1
Профиль формата : Layer 3
Режим : Joint stereo
Идентификатор кодека : A_MPEG/L3
Идентификатор кодека/Подсказка : MP3
Продолжительность : 4 м. 52 с.
Вид битрейта : Переменный
Битрейт : 264 Кбит/сек
Минимальный битрейт : 32,0 Кбит/сек
Каналы : 2 канала
Частота : 44,1 КГц
Метод сжатия : С потерями
Размер потока : 9,18 Мбайт (1%)
Библиотека кодирования : LAME3.98r
Настройки программы : -m j -V 0 -q 0 -lowpass 19.5 --vbr-new -b 32
Default : Да
Forced : Нет

Релиз подготовлен 60 - fps

 
Показать сообщения:    

Текущее время: 05-Дек 05:26

Часовой пояс: UTC + 3


Вы не можете начинать темы
Вы не можете отвечать на сообщения
Вы не можете редактировать свои сообщения
Вы не можете удалять свои сообщения
Вы не можете голосовать в опросах
Вы не можете прикреплять файлы к сообщениям
Вы не можете скачивать файлы