[Цитировать]
Kryl

-INNA - Crazy Sexy Wild (2012) HDTVRip 1080p | 60 fps- -Информация о Клипе
Исполнитель: INNA
Название: Crazy Sexy Wild
Год выхода: 2012
Продолжительность: 00:03:22-Файл
Кодек: MPEG4/ISO/AVC/ H.264
Формат: MKV
Качество: HDTVRip 1080p
Видео: 1920 x 1080 (1.778) at 59.940 fps ~19.6 Мбит/сек
Аудио : MP3 | 268 Кбит/сек | 44.1 KHz | 2.0 channels

MI

Видео
Идентификатор : 1
Формат : AVC
Формат/Информация : Advanced Video Codec
Профиль формата : Main@L4.2
Параметр CABAC формата : Да
Параметр ReFrames формата : 3 кадра
Идентификатор кодека : V_MPEG4/ISO/AVC
Продолжительность : 3 м. 21 с.
Битрейт : 19,6 Мбит/сек
Ширина : 1920 пикселей
Высота : 1080 пикселей
Соотношение сторон : 16:9
Режим частоты кадров : Постоянный
Частота кадров : 59,880 кадров/сек
Частота кадров в оригинале : 59,940 кадров/сек
Стандарт вещания : PAL
Цветовое пространство : YUV
Субдискретизация насыщенности : 4:2:0
Битовая глубина : 8 бит
Тип развёртки : Прогрессивная
Бит/(Пиксели*Кадры) : 0.158
Размер потока : 471 Мбайт (97%)
Заголовок : www.60-fps.org
Язык : English
Default : Да
Forced : Нет
Основные цвета : BT.709
Характеристики трансфера : BT.709
Коэффициенты матрицы : BT.709
colour_range : Limited
Аудио
Идентификатор : 2
Формат : MPEG Audio
Версия формата : Version 1
Профиль формата : Layer 3
Режим : Joint stereo
Идентификатор кодека : A_MPEG/L3
Идентификатор кодека/Подсказка : MP3
Продолжительность : 3 м. 21 с.
Вид битрейта : Переменный
Битрейт : 268 Кбит/сек
Минимальный битрейт : 32,0 Кбит/сек
Каналы : 2 канала
Частота : 44,1 КГц
Метод сжатия : С потерями
Размер потока : 6,44 Мбайт (1%)
Библиотека кодирования : LAME3.98r
Настройки программы : -m j -V 0 -q 0 -lowpass 19.5 --vbr-new -b 32
Язык : English
Default : Да
Forced : Нет

Релиз подготовлен 60 - fps

[Цитировать]
Kryl

3291Аудио : MP3 | 268 Кбит/сек | 44.1 KHz | 2.0 channels !?!?!??!? копец, даже в AC3 нет ? Не говоря про DTS и выше )(
Это Вам на музыкальный трекер надо , а не сюда ...
 
Показать сообщения:    

Текущее время: 03-Дек 16:39

Часовой пояс: UTC + 3


Вы не можете начинать темы
Вы не можете отвечать на сообщения
Вы не можете редактировать свои сообщения
Вы не можете удалять свои сообщения
Вы не можете голосовать в опросах
Вы не можете прикреплять файлы к сообщениям
Вы не можете скачивать файлы