Топ Топиков за 24 часа
 
Luis Fonsi - Despacito ft. Daddy Yankee (2017) WEBRip 1080p | 60 fps Jennifer Lopez feat. Gente de Zona - Ni Tu Ni Yo (2017) WEBRip 1080p | 60 fps Iggy Azalea - Mo Bounce (2017) Full HD 1080p | 60 fps Katy Perry - Dark Horse (2014) Full HD 1080p | 60 fps DJ Khaled feat. Rihanna & Bryson Tiller - Wild Thoughts (2017) Full HD 1080p | 60 fps Inna - Gimme Gimme (2017) Full HD 1080p | 60 fps Loboda - Твои Глаза (2016) WEBRip 1080p | 60 fps Rihanna - Needed Me (2016) Full HD 1080p | 60 fps Jennifer Lopez - I'm Into You ft. Lil Wayne (2011) Full HD 1080p | 60 fps Spice Girls - Wannabe (1996) Full HD 1080p | 60 fps Taylor Swift - Look What You Made Me Do (2017) WEBRip 1080p | 60 fps Serebro - Мама Люба давай (2011) Full HD 1080p | 60 fps
  1. Стаж:
    2 года 10 месяцев
    Сообщений:
    284
    Пол:
    Мужской
     
    INNA - Cola Song (feat. J Balvin) (2014) Full HD 1080p | 60 fps

    Информация о Клипе:
    Исполнитель:INNA
    Название:Cola Song
    Год выпуска: 2014 г.
    Жанр: Поп
    Продолжительность: 3 м. 22 с.

    Файл:
    Формат видео: MKV
    Качество видео: Master 1080p | 60fps
    Видео кодек: H.264
    Аудио кодек: AC3
    Видео: 1920x1080 | 59.940 fps | 12,3 Мбит/сек
    Аудио: AC3 | 2 channels | 48 kHz |384 Кбит/сек

    Автор Релиза:Kamikkadze

    Отчёт MediaInfo

    Видео
    Идентификатор : 1
    Формат : AVC
    Формат/Информация : Advanced Video Codec
    Профиль формата : High@L4.1
    Параметр CABAC формата : Да
    Параметр ReFrames формата : 4 кадра
    Идентификатор кодека : V_MPEG4/ISO/AVC
    Продолжительность : 3 м. 22 с.
    Битрейт : 12,3 Мбит/сек
    Ширина : 1920 пикселей
    Высота : 1080 пикселей
    Соотношение сторон : 16:9
    Режим частоты кадров : Постоянный
    Частота кадров : 59,880 кадров/сек
    Частота кадров в оригинале : 59,940 кадров/сек
    Цветовое пространство : YUV
    Субдискретизация насыщенности : 4:2:0
    Битовая глубина : 8 бит
    Тип развёртки : Прогрессивная
    Бит/(Пиксели*Кадры) : 0.099
    Размер потока : 291 Мбайт (95%)
    Заголовок : Rip By Kamikkadze(Специально для проекта 60-fps)
    Библиотека кодирования : x264 core 130 r2273 b3065e6
    Настройки программы : cabac=1 / ref=4 / deblock=1:-1:0 / analyse=0x3:0x113 / me=umh / subme=10 / psy=1 / psy_rd=0.40:0.00 / mixed_ref=1 / me_range=24 / chroma_me=1 / trellis=2 / 8x8dct=1 / cqm=0 / deadzone=21,11 / fast_pskip=0 / chroma_qp_offset=-2 / threads=6 / lookahead_threads=1 / sliced_threads=0 / nr=0 / decimate=0 / interlaced=0 / bluray_compat=0 / constrained_intra=0 / bframes=3 / b_pyramid=2 / b_adapt=2 / b_bias=0 / direct=3 / weightb=1 / open_gop=0 / weightp=2 / keyint=250 / keyint_min=25 / scenecut=40 / intra_refresh=0 / rc_lookahead=60 / rc=2pass / mbtree=1 / bitrate=12296 / ratetol=1.0 / qcomp=0.70 / qpmin=0 / qpmax=69 / qpstep=4 / cplxblur=20.0 / qblur=0.5 / vbv_maxrate=50000 / vbv_bufsize=50000 / nal_hrd=none / ip_ratio=1.40 / aq=1:0.60
    Язык : English
    Default : Да
    Forced : Нет
    Аудио
    Идентификатор : 2
    Формат : AC-3
    Формат/Информация : Audio Coding 3
    Расширение режима : CM (complete main)
    Параметр Endianness формата : Big
    Идентификатор кодека : A_AC3
    Продолжительность : 3 м. 22 с.
    Вид битрейта : Постоянный
    Битрейт : 384 Кбит/сек
    Каналы : 2 канала
    Расположение каналов : Front: L R
    Частота : 48,0 КГц
    Битовая глубина : 16 бит
    Метод сжатия : С потерями
    Размер потока : 9,26 Мбайт (3%)
    Заголовок : Rip By Kamikkadze(Специально для проекта 60-fps)
    Язык : English
    Default : Да
    Forced : Нет

    Скриншоты



    Последний раз редактировалось: kamikkadze (2015-05-08 18:55), всего редактировалось 1 раз
  2. Стаж:
    2 года 8 месяцев
    Сообщений:
    5
    Пол:
    Мужской
     
    Не вижу ссылку на загрузку!
    28-Мар-2015 11:32 (спустя 10 часов)
  3. Стаж:
    2 года 10 месяцев
    Сообщений:
    2
    Пол:
    Не указан
     
    вмсавмв
    28-Мар-2015 11:54 (спустя 21 минута)
  4. Стаж:
    2 года 8 месяцев
    Сообщений:
    1
    Пол:
    Не указан
     
    где ссылка?
    28-Мар-2015 13:58 (спустя 2 часа 3 минуты)
  5. Стаж:
    2 года 9 месяцев
    Сообщений:
    8
    Пол:
    Не указан
     
    Ссылка есть, сходите к окулисту
    29-Мар-2015 11:35 (спустя 21 час)


Вы не можете начинать темы
Вы не можете отвечать на сообщения
Вы не можете редактировать свои сообщения
Вы не можете удалять свои сообщения
Вы не можете голосовать в опросах
Вы не можете прикреплять файлы к сообщениям
Вы не можете скачивать файлы