Rammstein (БЕЗ ЦЕНЗУРЫ)| WEBRip 1080p | 60 fps Britney Spears - Oops! I Did It Again Uncut (2009) HD 1080p | 60 fps BLACKPINK | WEBRip 1080p | 60 fps Britney Spears - Toxic (2004) HDTVRip 1080p | 60 fps Britney Spears - ...Baby One More Time (2009) Full HD 1080p | 60 fps ITZY | WEBRip 1080p | 60 fps Lady Gaga - Poker Face (2009) Full HD 1080p | 60 fps Jennifer Lopez ft. Iggy Azalea - Booty (2014) Full HD 1080p | 60 fps
  1. Longevity:
    6 years
    Posts:
    2419
    Gender:
    Male
    -INNA - Bop Bop (feat. Eric Turner) (2015) WEBRip 1080p | 60 fps- -Информация о Клипе
    Исполнитель: INNA
    Название: Bop Bop (feat. Eric Turner)
    Год выхода: 2015
    Продолжительность: 00:03:24-Файл
    Кодек: MPEG4/ISO/AVC/ H.264
    Формат: MKV
    Качество: WEBRip 1080p
    Видео: 1920 x 1080 (1.778) at 60.000 fps 7.8 Мбит/сек
    Аудио : MP3 | 320 Кбит/сек | 44.1 KHz | 2.0 channels

    MI

    Видео
    Идентификатор : 1
    Формат : AVC
    Формат/Информация : Advanced Video Codec
    Профиль формата : Main@L4.2
    Параметр CABAC формата : Да
    Параметр ReFrames формата : 3 кадра
    Идентификатор кодека : V_MPEG4/ISO/AVC
    Продолжительность : 3 м. 24 с.
    Битрейт : 7807 Кбит/сек
    Ширина : 1920 пикселей
    Высота : 1080 пикселей
    Соотношение сторон : 16:9
    Режим частоты кадров : Постоянный
    Частота кадров : 60,000 кадров/сек
    Стандарт вещания : PAL
    Цветовое пространство : YUV
    Субдискретизация насыщенности : 4:2:0
    Битовая глубина : 8 бит
    Тип развёртки : Прогрессивная
    Бит/(Пиксели*Кадры) : 0.063
    Размер потока : 191 Мбайт (94%)
    Заголовок : www.60-fps.org
    Язык : English
    Default : Да
    Forced : Нет
    Основные цвета : BT.709
    Характеристики трансфера : BT.709
    Коэффициенты матрицы : BT.709
    colour_range : Limited
    Аудио
    Идентификатор : 2
    Формат : MPEG Audio
    Версия формата : Version 1
    Профиль формата : Layer 3
    Режим : Joint stereo
    Расширение режима : MS Stereo
    Идентификатор кодека : A_MPEG/L3
    Идентификатор кодека/Подсказка : MP3
    Продолжительность : 3 м. 24 с.
    Вид битрейта : Постоянный
    Битрейт : 320 Кбит/сек
    Каналы : 2 канала
    Частота : 44,1 КГц
    Метод сжатия : С потерями
    Размер потока : 7,82 Мбайт (4%)
    Заголовок : MP3
    Библиотека кодирования : LAME3.99.5
    Default : Да
    Forced : Нет

    Release was prepared by 60 - fps

  2. Longevity:
    5 years 4 months
    Posts:
    3
    Gender:
    Unknown
    I think the size of this video after encoding progress must be at least 500 mb.Thats mean maby its not the real quality 1080p and 60fps.
    16-Jul-2015 14:31 (after 2 days)
  3. Longevity:
    6 years
    Posts:
    2419
    Gender:
    Male
    3282I think the size of this video after encoding progress must be at least 500 mb.Thats mean maby its not the real quality 1080p and 60fps.
    You are not right
    16-Jul-2015 14:57 (after 26 minutes)


You cannot post new topics in this forum
You cannot reply to topics in this forum
You cannot edit your posts in this forum
You cannot delete your posts in this forum
You cannot vote in polls in this forum
You cannot attach files in this forum
You cannot download files in this forum