1. Longevity:
    4 years 6 months
    Posts:
    268
    Gender:
    Male

    Индиана Джонс: В поисках утраченного ковчега / Raiders of the Lost Ark (1981)

    «Indiana Jones - the new hero from the creators of JAWS and STAR WARS»- Информация
    Название: Индиана Джонс: В поисках утраченного ковчега
    Оригинальное название: Raiders of the Lost Ark
    Год выхода: 1981
    Жанр: Боевик, приключения
    Режиссер: Стивен Спилберг
    Сценарий: Лоуренс Кэздан, Джордж Лукас, Филип Кауфман
    Продюсер: Фрэнк Маршалл, Ховард Дж. Казанян, Джордж Лукас
    В ролях: Харрисон Форд, Карен Аллен, Пол Фримен, Рональд Лейси, Джон Рис-Дэвис, Денхолм Эллиот, Альфред Молина, Вольф Калер, Энтони Хиггинс, Вик Тэблиан
    --Сюжет:
    Известный археолог и специалист по оккультным наукам доктор Джонс получает опасное задание от правительства США. Он должен отправиться на поиски уникальной реликвии — священного Ковчега. Но Индиана и не подозревает, что аналогичный приказ уже получили тайные агенты Адольфа Гитлера…-- Страна: США
    Продолжительность: 01:55:18
    -- Файл
    Кодек: MPEG4/ISO/AVC H.264
    Формат: MKV
    Качество: BDRip
    Видео: 1920x816 (2.35:1) | 59.940 fps | 18.5 Мбит/сек
    Аудио: AC3 | 5.1 | 48 kHz | 448 kbps | 16 bit | Многоголосый закадровый (НТВ+) |
    Аудио: DTS | 5.1 | 48 kHz | 3840 kbps | 24 bit | English |
    Субтитры: Русские, английские

    MedifInfo

    Общее
    Уникальный идентификатор : 112047339787732262732792249573028935383 (0x544B885E47E99A5CC0A972BCD38836D7)
    Полное имя : D:\Movie\Индиана Джонс\1. Индиана Джонс - В поисках утраченного ковчега (1981).mkv
    Формат : Matroska
    Версия формата : Version 4 / Version 2
    Размер файла : 18,3 Гбайт
    Продолжительность : 1 ч. 55 м.
    Общий поток : 22,8 Мбит/сек
    Название фильма : Индиана Джонс: В поисках утраченного ковчега / Raiders of the Lost Ark (1981)
    Дата кодирования : UTC 2021-04-18 21:25:43
    Программа кодирования : mkvmerge v22.0.0 ('At The End Of The World') 64-bit
    Библиотека кодирования : libebml v1.3.5 + libmatroska v1.4.8
    Видео
    Идентификатор : 1
    Формат : AVC
    Формат/Информация : Advanced Video Codec
    Профиль формата : [email protected]
    Параметр CABAC формата : Да
    Параметр ReFrames формата : 4 кадра
    Идентификатор кодека : V_MPEG4/ISO/AVC
    Продолжительность : 1 ч. 55 м.
    Битрейт : 18,5 Мбит/сек
    Ширина : 1920 пикселей
    Высота : 816 пикселей
    Соотношение сторон : 2,35:1
    Режим частоты кадров : Постоянный
    Частота кадров : 59,940 (60000/1001) кадров/сек
    Цветовое пространство : YUV
    Субдискретизация насыщенности : 4:2:0
    Битовая глубина : 8 бит
    Тип развёртки : Прогрессивная
    Бит/(Пиксели*Кадры) : 0.197
    Размер потока : 14,9 Гбайт (81%)
    Заголовок : Индиана Джонс: В поисках утраченного ковчега (Талямба)
    Библиотека кодирования : x264 core 146 r2538 121396c
    Настройки программы : cabac=1 / ref=3 / deblock=1:0:0 / analyse=0x3:0x113 / me=hex / subme=7 / psy=1 / psy_rd=1.00:0.25 / mixed_ref=1 / me_range=16 / chroma_me=1 / trellis=1 / 8x8dct=1 / cqm=0 / deadzone=6,6 / fast_pskip=1 / chroma_qp_offset=-4 / threads=36 / lookahead_threads=6 / sliced_threads=0 / nr=0 / decimate=0 / interlaced=0 / bluray_compat=0 / constrained_intra=0 / bframes=3 / b_pyramid=2 / b_adapt=1 / b_bias=0 / direct=1 / weightb=1 / open_gop=0 / weightp=2 / keyint=599 / keyint_min=59 / scenecut=40 / intra_refresh=0 / rc_lookahead=40 / rc=2pass / mbtree=1 / bitrate=18500 / ratetol=1.0 / qcomp=0.80 / qpmin=0 / qpmax=69 / qpstep=4 / cplxblur=20.0 / qblur=0.5 / vbv_maxrate=50000 / vbv_bufsize=50000 / nal_hrd=none / filler=0 / ip_ratio=1.10 / aq=1:0.50
    Язык : English
    Default : Да
    Forced : Нет
    Аудио #1
    Идентификатор : 2
    Формат : AC-3
    Формат/Информация : Audio Coding 3
    Расширение режима : CM (complete main)
    Параметр Endianness формата : Big
    Идентификатор кодека : A_AC3
    Продолжительность : 1 ч. 55 м.
    Вид битрейта : Постоянный
    Битрейт : 448 Кбит/сек
    Каналы : 6 каналов
    Расположение каналов : Front: L C R, Side: L R, LFE
    Частота : 48,0 КГц
    Частота кадров : 31,250 кадров/сек (1536 spf)
    Битовая глубина : 16 бит
    Метод сжатия : С потерями
    Размер потока : 369 Мбайт (2%)
    Заголовок : Многоголосый закадровый (НТВ+)
    Язык : Russian
    Default : Да
    Forced : Нет
    Аудио #2
    Идентификатор : 3
    Формат : DTS
    Формат/Информация : Digital Theater Systems
    Профиль формата : MA / Core
    Режим : 16
    Параметр Endianness формата : Big
    Идентификатор кодека : A_DTS
    Продолжительность : 1 ч. 55 м.
    Вид битрейта : Переменный / Постоянный
    Битрейт : 3840 Кбит/сек / 1509 Кбит/сек
    Каналы : 6 каналов
    Расположение каналов : Front: L C R, Side: L R, LFE
    Частота : 48,0 КГц
    Частота кадров : 93,750 кадра/сек (512 spf)
    Битовая глубина : 24 бит
    Метод сжатия : Без потерь / Lossy
    Размер потока : 3,07 Гбайт (17%)
    Заголовок : Оригинал
    Язык : English
    Default : Нет
    Forced : Нет
    Текст #1
    Идентификатор : 4
    Формат : PGS
    Режим смешивания : zlib
    Идентификатор кодека : S_HDMV/PGS
    Идентификатор кодека/Информация : Picture based subtitle format used on BDs/HD-DVDs
    Продолжительность : 1 ч. 50 м.
    Битрейт : 12,4 Кбит/сек
    Count of elements : 1152
    Размер потока : 9,74 Мбайт (0%)
    Язык : Russian
    Default : Да
    Forced : Нет
    Текст #2
    Идентификатор : 5
    Формат : PGS
    Режим смешивания : zlib
    Идентификатор кодека : S_HDMV/PGS
    Идентификатор кодека/Информация : Picture based subtitle format used on BDs/HD-DVDs
    Продолжительность : 1 ч. 48 м.
    Битрейт : 21,9 Кбит/сек
    Count of elements : 2014
    Размер потока : 17,0 Мбайт (0%)
    Язык : English
    Default : Нет
    Forced : Нет
    Текст #3
    Идентификатор : 6
    Формат : PGS
    Режим смешивания : zlib
    Идентификатор кодека : S_HDMV/PGS
    Идентификатор кодека/Информация : Picture based subtitle format used on BDs/HD-DVDs
    Продолжительность : 1 ч. 49 м.
    Битрейт : 26,1 Кбит/сек
    Count of elements : 2450
    Размер потока : 20,4 Мбайт (0%)
    Язык : English
    Default : Нет
    Forced : Нет

    Индиана Джонс: и Храм судьбы / Indiana Jones and the Temple of Doom (1984)

    «The man in the hat is back...»- Информация
    Название: Индиана Джонс: и Храм судьбы
    Оригинальное название: Indiana Jones and the Temple of Doom
    Год выхода: 1984
    Жанр: Боевик, приключения
    Режиссер: Стивен Спилберг
    Сценарий: Уиллард Хайк, Глория Кац, Джордж Лукас
    Продюсер: Роберт Уоттс, Кэтлин Кеннеди, Джордж Лукас
    В ролях: Харрисон Форд, Кейт Кэпшоу, Джонатан Ке Кван, Амриш Пури, Рошан Сет, Филип Стоун, Рой Чяо, Дэвид Ип, Рик Янг, Цзю Чуака
    --Сюжет:
    Вторая часть невероятных похождений прославленного археолога и искателя приключений Индианы Джонса. В этот раз бесстрашный доктор Джонс совершит путешествие в сердце Гималаев вместе с ресторанной певичкой Уилли Скотт и своим верным маленьким помощником Коротышкой.
    Здесь, среди величественных гор, археологу и его спутникам предстоит столкнуться с кровавым культом поклонения древней Богине Смерти — Кали. Станет ли Индиана следующим несчастным, погибшим на жутком алтаре человеческих жертвоприношений, или ему, как всегда, удастся вырваться из цепких лап страха и разобраться со злодеями.
    -- Страна: США
    Продолжительность: 01:58:28
    -- Файл
    Кодек: MPEG4/ISO/AVC H.264
    Формат: MKV
    Качество: BDRip
    Видео: 1920x816 (2.35:1) | 59.940 fps | 18.5 Мбит/сек
    Аудио: DTS | 5.1 | 48 kHz | 4353 kbps | 24 bit | Многоголосый (DVD/FVD) |
    Аудио: DTS | 5.1 | 48 kHz | 4365 kbps | 24 bit | English |
    Субтитры: Русские, английские

    MedifInfo

    Общее
    Уникальный идентификатор : 298751244145208208982485770310247849286 (0xE0C1658E46D472F7706AF53C34591D46)
    Полное имя : D:\Movie\Индиана Джонс\2. Индиана Джонс и Храм судьбы (1984).mkv
    Формат : Matroska
    Версия формата : Version 4 / Version 2
    Размер файла : 22,5 Гбайт
    Продолжительность : 1 ч. 58 м.
    Общий поток : 27,2 Мбит/сек
    Название фильма : Индиана Джонс и Храм судьбы / Indiana Jones and the Temple of Doom (1984)
    Дата кодирования : UTC 2021-04-19 20:49:51
    Программа кодирования : mkvmerge v22.0.0 ('At The End Of The World') 64-bit
    Библиотека кодирования : libebml v1.3.5 + libmatroska v1.4.8
    Видео
    Идентификатор : 1
    Формат : AVC
    Формат/Информация : Advanced Video Codec
    Профиль формата : [email protected]
    Параметр CABAC формата : Да
    Параметр ReFrames формата : 4 кадра
    Идентификатор кодека : V_MPEG4/ISO/AVC
    Продолжительность : 1 ч. 58 м.
    Битрейт : 18,5 Мбит/сек
    Ширина : 1920 пикселей
    Высота : 816 пикселей
    Соотношение сторон : 2,35:1
    Режим частоты кадров : Постоянный
    Частота кадров : 59,940 (60000/1001) кадров/сек
    Цветовое пространство : YUV
    Субдискретизация насыщенности : 4:2:0
    Битовая глубина : 8 бит
    Тип развёртки : Прогрессивная
    Бит/(Пиксели*Кадры) : 0.197
    Размер потока : 15,3 Гбайт (68%)
    Заголовок : Индиана Джонс и Храм судьбы (Талямба)
    Библиотека кодирования : x264 core 146 r2538 121396c
    Настройки программы : cabac=1 / ref=3 / deblock=1:0:0 / analyse=0x3:0x113 / me=hex / subme=7 / psy=1 / psy_rd=1.00:0.25 / mixed_ref=1 / me_range=16 / chroma_me=1 / trellis=1 / 8x8dct=1 / cqm=0 / deadzone=6,6 / fast_pskip=1 / chroma_qp_offset=-4 / threads=36 / lookahead_threads=6 / sliced_threads=0 / nr=0 / decimate=0 / interlaced=0 / bluray_compat=0 / constrained_intra=0 / bframes=3 / b_pyramid=2 / b_adapt=1 / b_bias=0 / direct=1 / weightb=1 / open_gop=0 / weightp=2 / keyint=599 / keyint_min=59 / scenecut=40 / intra_refresh=0 / rc_lookahead=40 / rc=2pass / mbtree=1 / bitrate=18500 / ratetol=1.0 / qcomp=0.80 / qpmin=0 / qpmax=69 / qpstep=4 / cplxblur=20.0 / qblur=0.5 / vbv_maxrate=50000 / vbv_bufsize=50000 / nal_hrd=none / filler=0 / ip_ratio=1.10 / aq=1:0.50
    Язык : English
    Default : Да
    Forced : Нет
    Аудио #1
    Идентификатор : 2
    Формат : DTS
    Формат/Информация : Digital Theater Systems
    Профиль формата : MA / Core
    Режим : 16
    Параметр Endianness формата : Big
    Идентификатор кодека : A_DTS
    Продолжительность : 1 ч. 58 м.
    Вид битрейта : Переменный / Постоянный
    Битрейт : 4353 Кбит/сек / 1509 Кбит/сек
    Каналы : 6 каналов
    Расположение каналов : Front: L C R, Side: L R, LFE
    Частота : 48,0 КГц
    Частота кадров : 93,750 кадра/сек (512 spf)
    Битовая глубина : 24 бит
    Метод сжатия : Без потерь / Lossy
    Размер потока : 3,60 Гбайт (16%)
    Заголовок : Многоголосый (DVD/FVD)
    Язык : Russian
    Default : Да
    Forced : Нет
    Аудио #2
    Идентификатор : 3
    Формат : DTS
    Формат/Информация : Digital Theater Systems
    Профиль формата : MA / Core
    Режим : 16
    Параметр Endianness формата : Big
    Идентификатор кодека : A_DTS
    Продолжительность : 1 ч. 58 м.
    Вид битрейта : Переменный / Постоянный
    Битрейт : 4365 Кбит/сек / 1509 Кбит/сек
    Каналы : 6 каналов
    Расположение каналов : Front: L C R, Side: L R, LFE
    Частота : 48,0 КГц
    Частота кадров : 93,750 кадра/сек (512 spf)
    Битовая глубина : 24 бит
    Метод сжатия : Без потерь / Lossy
    Размер потока : 3,61 Гбайт (16%)
    Заголовок : Оригинал
    Язык : English
    Default : Нет
    Forced : Нет
    Текст #1
    Идентификатор : 4
    Формат : PGS
    Режим смешивания : zlib
    Идентификатор кодека : S_HDMV/PGS
    Идентификатор кодека/Информация : Picture based subtitle format used on BDs/HD-DVDs
    Продолжительность : 1 ч. 57 м.
    Битрейт : 14,9 Кбит/сек
    Count of elements : 1272
    Размер потока : 12,5 Мбайт (0%)
    Язык : Russian
    Default : Да
    Forced : Нет
    Текст #2
    Идентификатор : 5
    Формат : PGS
    Режим смешивания : zlib
    Идентификатор кодека : S_HDMV/PGS
    Идентификатор кодека/Информация : Picture based subtitle format used on BDs/HD-DVDs
    Продолжительность : 1 ч. 52 м.
    Битрейт : 17,7 Кбит/сек
    Count of elements : 1734
    Размер потока : 14,2 Мбайт (0%)
    Язык : English
    Default : Нет
    Forced : Нет
    Текст #3
    Идентификатор : 6
    Формат : PGS
    Режим смешивания : zlib
    Идентификатор кодека : S_HDMV/PGS
    Идентификатор кодека/Информация : Picture based subtitle format used on BDs/HD-DVDs
    Продолжительность : 1 ч. 52 м.
    Битрейт : 22,3 Кбит/сек
    Count of elements : 2234
    Размер потока : 17,9 Мбайт (0%)
    Язык : English
    Default : Нет
    Forced : Нет

    Индиана Джонс: и последний крестовый поход / Indiana Jones and the Last Crusade (1989)

    «The man with the hat is back. And this time, he's bringing his Dad»- Информация
    Название: Индиана Джонс: и последний крестовый поход
    Оригинальное название: Indiana Jones and the Last Crusade
    Год выхода: 1989
    Жанр: Боевик, приключения
    Режиссер: Стивен Спилберг
    Сценарий: Джордж Лукас, Джефри Боум, Менно Мейес, ...
    Продюсер: Роберт Уоттс, Джордж Лукас, Фрэнк Маршалл
    В ролях: Харрисон Форд, Шон Коннери, Денхолм Эллиот, Элисон Дуди, Джон Рис-Дэвис, Джулиан Гловер, Ривер Феникс, Майкл Бирн, Кеворк Маликян, Роберт Эддисон
    --Сюжет:
    Третья часть невероятных похождений прославленного археолога и искателя приключений Индианы Джонса. На этот раз бесстрашный Индиана разыскивает самую таинственную реликвию в истории человечества — Святой Грааль. В этом археологу помогает его отец — профессор Джонс старший.
    Теперь под бдительным оком своего отца и при помощи своих верных талисманов, неизменной шляпы и хлыста, Индиане предстоит совершить много благородных подвигов и потрясающих открытий. В новых странствиях храброму археологу доведется добыть чашу, которую держал в руках Иисус Христос и получить автограф… самого Адольфа Гитлера.
    -- Страна: США
    Продолжительность: 02:06:53
    -- Файл
    Кодек: MPEG4/ISO/AVC H.264
    Формат: MKV
    Качество: BDRip
    Видео: 1920x816 (2.35:1) | 59.940 fps | 19.0 Мбит/сек
    Аудио: DTS | 5.1 | 48 kHz | 4082 kbps | 24 bit | Профессиональный многоголосый (Киномания) |
    Аудио: AC3 | 5.1 | 48 kHz | 384 kbps | 16 bit | Дубляж (ICTV) |
    Аудио: DTS | 5.1 | 48 kHz | 4085 kbps | 24 bit | English |
    Субтитры: Русские, английские

    MedifInfo

    Общее
    Уникальный идентификатор : 137730568774269212793551062211693051430 (0x679DF1528ED8E9DB16B64630EF5EFE26)
    Полное имя : D:\Movie\Индиана Джонс\3. Индиана Джонс и последний крестовый поход (1989).mkv
    Формат : Matroska
    Версия формата : Version 4 / Version 2
    Размер файла : 24,4 Гбайт
    Продолжительность : 2 ч. 6 м.
    Общий поток : 27,6 Мбит/сек
    Название фильма : Индиана Джонс и последний крестовый поход / Indiana Jones and the Last Crusade (1989)
    Дата кодирования : UTC 2021-04-15 21:03:31
    Программа кодирования : mkvmerge v22.0.0 ('At The End Of The World') 64-bit
    Библиотека кодирования : libebml v1.3.5 + libmatroska v1.4.8
    Видео
    Идентификатор : 1
    Формат : AVC
    Формат/Информация : Advanced Video Codec
    Профиль формата : [email protected]
    Параметр CABAC формата : Да
    Параметр ReFrames формата : 4 кадра
    Идентификатор кодека : V_MPEG4/ISO/AVC
    Продолжительность : 2 ч. 6 м.
    Битрейт : 19,0 Мбит/сек
    Ширина : 1920 пикселей
    Высота : 816 пикселей
    Соотношение сторон : 2,35:1
    Режим частоты кадров : Постоянный
    Частота кадров : 59,940 (60000/1001) кадров/сек
    Цветовое пространство : YUV
    Субдискретизация насыщенности : 4:2:0
    Битовая глубина : 8 бит
    Тип развёртки : Прогрессивная
    Бит/(Пиксели*Кадры) : 0.202
    Размер потока : 16,8 Гбайт (69%)
    Заголовок : Индиана Джонс и последний крестовый поход (1989)
    Библиотека кодирования : x264 core 146 r2538 121396c
    Настройки программы : cabac=1 / ref=3 / deblock=1:0:0 / analyse=0x3:0x113 / me=hex / subme=7 / psy=1 / psy_rd=1.00:0.25 / mixed_ref=1 / me_range=16 / chroma_me=1 / trellis=1 / 8x8dct=1 / cqm=0 / deadzone=6,6 / fast_pskip=1 / chroma_qp_offset=-4 / threads=36 / lookahead_threads=6 / sliced_threads=0 / nr=0 / decimate=0 / interlaced=0 / bluray_compat=0 / constrained_intra=0 / bframes=3 / b_pyramid=2 / b_adapt=1 / b_bias=0 / direct=1 / weightb=1 / open_gop=0 / weightp=2 / keyint=599 / keyint_min=59 / scenecut=40 / intra_refresh=0 / rc_lookahead=40 / rc=2pass / mbtree=1 / bitrate=19000 / ratetol=1.0 / qcomp=0.80 / qpmin=0 / qpmax=69 / qpstep=4 / cplxblur=20.0 / qblur=0.5 / vbv_maxrate=50000 / vbv_bufsize=50000 / nal_hrd=none / filler=0 / ip_ratio=1.10 / aq=1:0.50
    Язык : English
    Default : Да
    Forced : Нет
    Аудио #1
    Идентификатор : 2
    Формат : DTS
    Формат/Информация : Digital Theater Systems
    Профиль формата : MA / Core
    Режим : 16
    Параметр Endianness формата : Big
    Идентификатор кодека : A_DTS
    Продолжительность : 2 ч. 6 м.
    Вид битрейта : Переменный / Постоянный
    Битрейт : 4082 Кбит/сек / 1509 Кбит/сек
    Каналы : 6 каналов
    Расположение каналов : Front: L C R, Side: L R, LFE
    Частота : 48,0 КГц
    Частота кадров : 93,750 кадра/сек (512 spf)
    Битовая глубина : 24 бит
    Метод сжатия : Без потерь / Lossy
    Размер потока : 3,62 Гбайт (15%)
    Заголовок : Многоголосный (Киномания)
    Язык : Russian
    Default : Да
    Forced : Нет
    Аудио #2
    Идентификатор : 3
    Формат : AC-3
    Формат/Информация : Audio Coding 3
    Расширение режима : CM (complete main)
    Параметр Endianness формата : Big
    Идентификатор кодека : A_AC3
    Продолжительность : 2 ч. 6 м.
    Вид битрейта : Постоянный
    Битрейт : 384 Кбит/сек
    Каналы : 6 каналов
    Расположение каналов : Front: L C R, Side: L R, LFE
    Частота : 48,0 КГц
    Частота кадров : 31,250 кадров/сек (1536 spf)
    Битовая глубина : 16 бит
    Метод сжатия : С потерями
    Размер потока : 349 Мбайт (1%)
    Заголовок : Дубляж (ICTV)
    Язык : Ukrainian
    Default : Нет
    Forced : Нет
    Аудио #3
    Идентификатор : 4
    Формат : DTS
    Формат/Информация : Digital Theater Systems
    Профиль формата : MA / Core
    Режим : 16
    Параметр Endianness формата : Big
    Идентификатор кодека : A_DTS
    Продолжительность : 2 ч. 6 м.
    Вид битрейта : Переменный / Постоянный
    Битрейт : 4085 Кбит/сек / 1509 Кбит/сек
    Каналы : 6 каналов
    Расположение каналов : Front: L C R, Side: L R, LFE
    Частота : 48,0 КГц
    Частота кадров : 93,750 кадра/сек (512 spf)
    Битовая глубина : 24 бит
    Метод сжатия : Без потерь / Lossy
    Размер потока : 3,62 Гбайт (15%)
    Заголовок : Оригинал
    Язык : English
    Default : Нет
    Forced : Нет
    Текст #1
    Идентификатор : 5
    Формат : PGS
    Режим смешивания : zlib
    Идентификатор кодека : S_HDMV/PGS
    Идентификатор кодека/Информация : Picture based subtitle format used on BDs/HD-DVDs
    Продолжительность : 2 ч. 6 м.
    Битрейт : 19,8 Кбит/сек
    Count of elements : 1738
    Размер потока : 17,9 Мбайт (0%)
    Язык : Russian
    Default : Да
    Forced : Нет
    Текст #2
    Идентификатор : 6
    Формат : PGS
    Режим смешивания : zlib
    Идентификатор кодека : S_HDMV/PGS
    Идентификатор кодека/Информация : Picture based subtitle format used on BDs/HD-DVDs
    Продолжительность : 1 ч. 58 м.
    Битрейт : 25,3 Кбит/сек
    Count of elements : 2388
    Размер потока : 21,3 Мбайт (0%)
    Язык : English
    Default : Нет
    Forced : Нет
    Текст #3
    Идентификатор : 7
    Формат : PGS
    Режим смешивания : zlib
    Идентификатор кодека : S_HDMV/PGS
    Идентификатор кодека/Информация : Picture based subtitle format used on BDs/HD-DVDs
    Продолжительность : 1 ч. 59 м.
    Битрейт : 27,1 Кбит/сек
    Count of elements : 2612
    Размер потока : 23,1 Мбайт (0%)
    Язык : English
    Default : Нет
    Forced : Нет

    Индиана Джонс: и Королевство хрустального черепа / Indiana Jones and the Kingdom of the Crystal Skull (2008)

    «In May, the adventure continues»- Информация
    Название: Индиана Джонс: и Королевство хрустального черепа
    Оригинальное название: Indiana Jones and the Kingdom of the Crystal Skull
    Год выхода: 2008
    Жанр: Боевик, приключения
    Режиссер: Стивен Спилберг
    Сценарий: Джордж Лукас, Дэвид Кепп, Джефф Натансон
    Продюсер: Фрэнк Маршалл, Кэтлин Кеннеди, Кристи Макоско Кригер
    В ролях: Харрисон Форд, Кейт Бланшетт, Шайа ЛаБаф, Карен Аллен, Рэй Уинстон, Джон Хёрт, Джим Бродбент, Игорь Жижикин, Дмитрий Дьяченко, Илья Волох
    --Сюжет:
    1957 год, разгар холодной войны. Советские солдаты, возглавляемые агентом Ириной Спалько, похищают Мэрион Рэйвенвуд — давнюю возлюбленную Индианы Джонса, ставя профессора перед выбором: бездействие и смерть Мэрион или помощь советской разведке в поисках легендарного Хрустального черепа в обмен на свободу женщины.-- Страна: США
    Продолжительность: 02:02:35
    -- Файл
    Кодек: MPEG4/ISO/AVC H.264
    Формат: MKV
    Качество: BDRip
    Видео: 1920x800 (2.40:1) | 59.940 fps | 18.5 Мбит/сек
    Аудио: AC3 | 5.1 | 48 kHz | 640 kbps | 16 bit | Дубляж |
    Аудио: TrueHD | 5.1 | 48 kHz | 1654-3069 kbps | 16 bit | English |

    MedifInfo

    Общее
    Уникальный идентификатор : 5512097659156172666014216024449803184 (0x425976595C8E9B14B8BE462C11AE3B0)
    Полное имя : D:\Movie\Индиана Джонс\4. Индиана Джонс и Королевство xрустального черепа (2008).mkv
    Формат : Matroska
    Версия формата : Version 4 / Version 2
    Размер файла : 17,8 Гбайт
    Продолжительность : 2 ч. 2 м.
    Режим общего битрейта : Переменный
    Общий поток : 20,8 Мбит/сек
    Название фильма : Индиана Джонс и Королевство xрустального черепа / Indiana Jones and the Kingdom of the Crystal Skull (2008)
    Дата кодирования : UTC 2021-04-20 20:59:48
    Программа кодирования : mkvmerge v22.0.0 ('At The End Of The World') 64-bit
    Библиотека кодирования : libebml v1.3.5 + libmatroska v1.4.8
    Видео
    Идентификатор : 1
    Формат : AVC
    Формат/Информация : Advanced Video Codec
    Профиль формата : [email protected]
    Параметр CABAC формата : Да
    Параметр ReFrames формата : 4 кадра
    Идентификатор кодека : V_MPEG4/ISO/AVC
    Продолжительность : 2 ч. 2 м.
    Битрейт : 18,5 Мбит/сек
    Ширина : 1920 пикселей
    Высота : 800 пикселей
    Соотношение сторон : 2,40:1
    Режим частоты кадров : Постоянный
    Частота кадров : 59,940 (60000/1001) кадров/сек
    Цветовое пространство : YUV
    Субдискретизация насыщенности : 4:2:0
    Битовая глубина : 8 бит
    Тип развёртки : Прогрессивная
    Бит/(Пиксели*Кадры) : 0.201
    Размер потока : 15,8 Гбайт (89%)
    Заголовок : Индиана Джонс и Королевство xрустального черепа (Талямба)
    Библиотека кодирования : x264 core 146 r2538 121396c
    Настройки программы : cabac=1 / ref=3 / deblock=1:0:0 / analyse=0x3:0x113 / me=hex / subme=7 / psy=1 / psy_rd=1.00:0.25 / mixed_ref=1 / me_range=16 / chroma_me=1 / trellis=1 / 8x8dct=1 / cqm=0 / deadzone=6,6 / fast_pskip=1 / chroma_qp_offset=-4 / threads=36 / lookahead_threads=6 / sliced_threads=0 / nr=0 / decimate=0 / interlaced=0 / bluray_compat=0 / constrained_intra=0 / bframes=3 / b_pyramid=2 / b_adapt=1 / b_bias=0 / direct=1 / weightb=1 / open_gop=0 / weightp=2 / keyint=599 / keyint_min=59 / scenecut=40 / intra_refresh=0 / rc_lookahead=40 / rc=2pass / mbtree=1 / bitrate=18500 / ratetol=1.0 / qcomp=0.80 / qpmin=0 / qpmax=69 / qpstep=4 / cplxblur=20.0 / qblur=0.5 / vbv_maxrate=50000 / vbv_bufsize=50000 / nal_hrd=none / filler=0 / ip_ratio=1.10 / aq=1:0.50
    Язык : English
    Default : Да
    Forced : Нет
    Аудио #1
    Идентификатор : 2
    Формат : AC-3
    Формат/Информация : Audio Coding 3
    Расширение режима : CM (complete main)
    Параметр Endianness формата : Big
    Идентификатор кодека : A_AC3
    Продолжительность : 2 ч. 2 м.
    Вид битрейта : Постоянный
    Битрейт : 640 Кбит/сек
    Каналы : 6 каналов
    Расположение каналов : Front: L C R, Side: L R, LFE
    Частота : 48,0 КГц
    Частота кадров : 31,250 кадров/сек (1536 spf)
    Битовая глубина : 16 бит
    Метод сжатия : С потерями
    Размер потока : 561 Мбайт (3%)
    Заголовок : Дубляж (Лицензия)
    Язык : Russian
    Default : Да
    Forced : Нет
    Аудио #2
    Идентификатор : 3
    Формат : TrueHD
    Идентификатор кодека : A_TRUEHD
    Продолжительность : 2 ч. 2 м.
    Вид битрейта : Переменный
    Битрейт : 1654 Кбит/сек
    Максимальный битрейт : 3069 Кбит/сек
    Каналы : 6 каналов
    Расположение каналов : Front: L C R, Side: L R, LFE
    Частота : 48,0 КГц
    Частота кадров : 1200,000 кадров/сек (40 spf)
    Метод сжатия : Без потерь
    Размер потока : 1,42 Гбайт (8%)
    Заголовок : Оригинал
    Язык : English
    Default : Нет
    Forced : Нет

    Release was prepared by 60-fps.org



You cannot post new topics in this forum
You cannot reply to topics in this forum
You cannot edit your posts in this forum
You cannot delete your posts in this forum
You cannot vote in polls in this forum
You cannot attach files in this forum
You cannot download files in this forum