Индиана Джонс: В поисках утраченного ковчега / Raiders of the Lost Ark (1981)

«Indiana Jones - the new hero from the creators of JAWS and STAR WARS»- Информация
Название: Индиана Джонс: В поисках утраченного ковчега
Оригинальное название: Raiders of the Lost Ark
Год выхода: 1981
Жанр: Боевик, приключения
Режиссер: Стивен Спилберг
Сценарий: Лоуренс Кэздан, Джордж Лукас, Филип Кауфман
Продюсер: Фрэнк Маршалл, Ховард Дж. Казанян, Джордж Лукас
В ролях: Харрисон Форд, Карен Аллен, Пол Фримен, Рональд Лейси, Джон Рис-Дэвис, Денхолм Эллиот, Альфред Молина, Вольф Калер, Энтони Хиггинс, Вик Тэблиан
--Сюжет:
Известный археолог и специалист по оккультным наукам доктор Джонс получает опасное задание от правительства США. Он должен отправиться на поиски уникальной реликвии — священного Ковчега. Но Индиана и не подозревает, что аналогичный приказ уже получили тайные агенты Адольфа Гитлера…- - Страна: США
Продолжительность: 01:55:18
-- Файл
Кодек: MPEG4/ISO/AVC H.264
Формат: MKV
Качество: BDRip-AVC
Видео: 1024x432 (2.35:1) | 59.940 fps | 4.3 Мбит/сек
Аудио: AC3 | 5.1 | 48 kHz | 384 kbps | 16 bit | Профессиональный многоголосый (Киномания) |
Субтитры: Русские, английские

MedifInfo

Video
ID : 1
Format : AVC
Format/Info : Advanced Video Codec
Format profile : High@L4.1
Format settings, CABAC : Yes
Format settings, ReFrames : 4 frames
Codec ID : V_MPEG4/ISO/AVC
Duration : 1h 55mn
Bit rate : 4 350 Kbps
Width : 1 024 pixels
Height : 432 pixels
Display aspect ratio : 2.35:1
Frame rate : 59.940 fps
Color space : YUV
Chroma subsampling : 4:2:0
Bit depth : 8 bits
Scan type : Progressive
Bits/(Pixel*Frame) : 0.164
Stream size : 3.43 GiB (90%)
Writing library : x264 core 146 r2538 121396c
Encoding settings : cabac=1 / ref=3 / deblock=1:0:0 / analyse=0x3:0x113 / me=umh / subme=9 / psy=1 / psy_rd=1.00:0.00 / mixed_ref=1 / me_range=24 / chroma_me=1 / trellis=2 / 8x8dct=1 / cqm=0 / deadzone=21,11 / fast_pskip=1 / chroma_qp_offset=-2 / threads=12 / lookahead_threads=3 / sliced_threads=0 / nr=0 / decimate=1 / interlaced=0 / bluray_compat=0 / constrained_intra=0 / bframes=16 / b_pyramid=2 / b_adapt=2 / b_bias=0 / direct=1 / weightb=1 / open_gop=0 / weightp=2 / keyint=250 / keyint_min=25 / scenecut=40 / intra_refresh=0 / rc=2pass / mbtree=0 / bitrate=4350 / ratetol=1.0 / qcomp=0.60 / qpmin=0 / qpmax=69 / qpstep=4 / cplxblur=20.0 / qblur=0.5 / ip_ratio=1.40 / pb_ratio=1.30 / aq=1:1.00
Language : English
Default : Yes
Forced : No
Audio
ID : 2
Format : AC-3
Format/Info : Audio Coding 3
Mode extension : CM (complete main)
Codec ID : A_AC3
Duration : 1h 55mn
Bit rate mode : Constant
Bit rate : 384 Kbps
Channel(s) : 6 channels
Channel positions : Front: L C R, Side: L R, LFE
Sampling rate : 48.0 KHz
Bit depth : 16 bits
Compression mode : Lossy
Stream size : 317 MiB (8%)
Title : профессиональный многоголосый (Киномания)
Language : Russian
Default : Yes
Forced : No
Text #1
ID : 3
Format : UTF-8
Codec ID : S_TEXT/UTF8
Codec ID/Info : UTF-8 Plain Text
Language : English
Default : No
Forced : No
Text #2
ID : 4
Format : UTF-8
Codec ID : S_TEXT/UTF8
Codec ID/Info : UTF-8 Plain Text
Language : English
Default : No
Forced : No
Text #3
ID : 5
Format : UTF-8
Codec ID : S_TEXT/UTF8
Codec ID/Info : UTF-8 Plain Text
Language : Russian
Default : Yes
Forced : No
Menu
00:00:00.000 : en:South America, 1936
00:03:16.529 : en:The Man with the Hat
00:05:44.635 : en:The Golden Idol
00:09:51.132 : en:Belloq and the Hovitos
00:12:49.351 : en:Archaeology Lesson
00:15:23.631 : en:Special Assignment
00:20:27.434 : en:Cautious Guy
00:22:58.418 : en:Nepal: The Raven
00:28:51.354 : en:Fight for the Medallion
00:33:42.395 : en:To Cairo
00:36:23.389 : en:The Marketplace
00:40:04.819 : en:Basket Chase
00:42:16.158 : en:Meeting with Belloq
00:46:41.507 : en:Bad Dates
00:49:32.928 : en:Tanis Dig
00:51:00.932 : en:The Map Room
00:55:11.141 : en:Reunited with Marion
00:58:33.218 : en:Uncovering the Well of Souls
01:03:05.740 : en:Into the Well of Souls
01:08:26.143 : en:The Ark Revealed
01:10:25.346 : en:Trapped
01:15:33.153 : en:Flying Wing
01:22:24.356 : en:Desert Chase
01:25:43.763 : en:Dragged Behind
01:29:57.517 : en:The Bantu Wind
01:34:30.665 : en:Confrontation at Sea
01:38:06.171 : en:The Nazis' Secret Island
01:41:06.060 : en:Indy's Bluff
01:44:06.823 : en:The Ark Ceremony
01:47:01.415 : en:The Power of the Ark
01:49:05.997 : en:Washington D.C. and End Credits

Индиана Джонс: и Храм судьбы / Indiana Jones and the Temple of Doom (1984)

«The man in the hat is back...»- Информация
Название: Индиана Джонс: и Храм судьбы
Оригинальное название: Indiana Jones and the Temple of Doom
Год выхода: 1984
Жанр: Боевик, приключения
Режиссер: Стивен Спилберг
Сценарий: Уиллард Хайк, Глория Кац, Джордж Лукас
Продюсер: Роберт Уоттс, Кэтлин Кеннеди, Джордж Лукас
В ролях: Харрисон Форд, Кейт Кэпшоу, Джонатан Ке Кван, Амриш Пури, Рошан Сет, Филип Стоун, Рой Чяо, Дэвид Ип, Рик Янг, Цзю Чуака
--Сюжет:
Вторая часть невероятных похождений прославленного археолога и искателя приключений Индианы Джонса. В этот раз бесстрашный доктор Джонс совершит путешествие в сердце Гималаев вместе с ресторанной певичкой Уилли Скотт и своим верным маленьким помощником Коротышкой.
Здесь, среди величественных гор, археологу и его спутникам предстоит столкнуться с кровавым культом поклонения древней Богине Смерти — Кали. Станет ли Индиана следующим несчастным, погибшим на жутком алтаре человеческих жертвоприношений, или ему, как всегда, удастся вырваться из цепких лап страха и разобраться со злодеями.
- - Страна: США
Продолжительность: 01:58:28
-- Файл
Кодек: MPEG4/ISO/AVC H.264
Формат: MKV
Качество: BDRip-AVC
Видео: 1024x432 (2.35:1) | 59.940 fps | 4.2 Мбит/сек
Аудио: AC3 | 5.1 | 48 kHz | 384 kbps | 16 bit | Профессиональный многоголосый (Киномания) |
Субтитры: Русские, английские

MedifInfo

Video
ID : 1
Format : AVC
Format/Info : Advanced Video Codec
Format profile : High@L4.1
Format settings, CABAC : Yes
Format settings, ReFrames : 4 frames
Codec ID : V_MPEG4/ISO/AVC
Duration : 1h 58mn
Bit rate : 4 240 Kbps
Width : 1 024 pixels
Height : 432 pixels
Display aspect ratio : 2.35:1
Frame rate : 59.940 fps
Color space : YUV
Chroma subsampling : 4:2:0
Bit depth : 8 bits
Scan type : Progressive
Bits/(Pixel*Frame) : 0.160
Stream size : 3.43 GiB (90%)
Writing library : x264 core 146 r2538 121396c
Encoding settings : cabac=1 / ref=3 / deblock=1:0:0 / analyse=0x3:0x113 / me=umh / subme=9 / psy=1 / psy_rd=1.00:0.00 / mixed_ref=1 / me_range=24 / chroma_me=1 / trellis=2 / 8x8dct=1 / cqm=0 / deadzone=21,11 / fast_pskip=1 / chroma_qp_offset=-2 / threads=12 / lookahead_threads=3 / sliced_threads=0 / nr=0 / decimate=1 / interlaced=0 / bluray_compat=0 / constrained_intra=0 / bframes=16 / b_pyramid=2 / b_adapt=2 / b_bias=0 / direct=1 / weightb=1 / open_gop=0 / weightp=2 / keyint=250 / keyint_min=25 / scenecut=40 / intra_refresh=0 / rc=2pass / mbtree=0 / bitrate=4240 / ratetol=1.0 / qcomp=0.60 / qpmin=0 / qpmax=69 / qpstep=4 / cplxblur=20.0 / qblur=0.5 / ip_ratio=1.40 / pb_ratio=1.30 / aq=1:1.00
Language : English
Default : Yes
Forced : No
Audio
ID : 2
Format : AC-3
Format/Info : Audio Coding 3
Mode extension : CM (complete main)
Codec ID : A_AC3
Duration : 1h 58mn
Bit rate mode : Constant
Bit rate : 384 Kbps
Channel(s) : 6 channels
Channel positions : Front: L C R, Side: L R, LFE
Sampling rate : 48.0 KHz
Bit depth : 16 bits
Compression mode : Lossy
Stream size : 325 MiB (8%)
Title : профессиональный многоголосый (Киномания)
Language : Russian
Default : Yes
Forced : No
Text #1
ID : 3
Format : UTF-8
Codec ID : S_TEXT/UTF8
Codec ID/Info : UTF-8 Plain Text
Language : Russian
Default : No
Forced : No
Text #2
ID : 4
Format : UTF-8
Codec ID : S_TEXT/UTF8
Codec ID/Info : UTF-8 Plain Text
Language : English
Default : No
Forced : No
Text #3
ID : 5
Format : UTF-8
Codec ID : S_TEXT/UTF8
Codec ID/Info : UTF-8 Plain Text
Title : SDH
Language : English
Default : No
Forced : No
Menu
00:00:00.000 : en:Chapter 1
00:02:54.049 : en:Chapter 2
00:08:07.278 : en:Chapter 3
00:10:52.735 : en:Chapter 4
00:12:51.479 : en:Chapter 5
00:16:00.543 : en:Chapter 6
00:19:50.189 : en:Chapter 7
00:26:28.670 : en:Chapter 8
00:28:42.971 : en:Chapter 9
00:31:49.032 : en:Chapter 10
00:35:21.161 : en:Chapter 11
00:38:57.001 : en:Chapter 12
00:41:20.520 : en:Chapter 13
00:46:24.323 : en:Chapter 14
00:50:42.957 : en:Chapter 15
00:52:06.582 : en:Chapter 16
00:56:08.365 : en:Chapter 17
00:59:57.219 : en:Chapter 18
01:05:57.078 : en:Chapter 19
01:09:52.021 : en:Chapter 20
01:13:08.551 : en:Chapter 21
01:17:08.290 : en:Chapter 22
01:24:01.954 : en:Chapter 23
01:27:33.331 : en:Chapter 24
01:29:21.106 : en:Chapter 25
01:35:03.448 : en:Chapter 26
01:39:23.875 : en:Chapter 27
01:41:51.272 : en:Chapter 28
01:43:38.796 : en:Chapter 29
01:49:57.966 : en:Chapter 30
01:53:10.909 : en:Chapter 31

Индиана Джонс: и последний крестовый поход / Indiana Jones and the Last Crusade (1989)

«The man with the hat is back. And this time, he's bringing his Dad»- Информация
Название: Индиана Джонс: и последний крестовый поход
Оригинальное название: Indiana Jones and the Last Crusade
Год выхода: 1989
Жанр: Боевик, приключения
Режиссер: Стивен Спилберг
Сценарий: Джордж Лукас, Джефри Боум, Менно Мейес, ...
Продюсер: Роберт Уоттс, Джордж Лукас, Фрэнк Маршалл
В ролях: Харрисон Форд, Шон Коннери, Денхолм Эллиот, Элисон Дуди, Джон Рис-Дэвис, Джулиан Гловер, Ривер Феникс, Майкл Бирн, Кеворк Маликян, Роберт Эддисон
--Сюжет:
Третья часть невероятных похождений прославленного археолога и искателя приключений Индианы Джонса. На этот раз бесстрашный Индиана разыскивает самую таинственную реликвию в истории человечества — Святой Грааль. В этом археологу помогает его отец — профессор Джонс старший.
Теперь под бдительным оком своего отца и при помощи своих верных талисманов, неизменной шляпы и хлыста, Индиане предстоит совершить много благородных подвигов и потрясающих открытий. В новых странствиях храброму археологу доведется добыть чашу, которую держал в руках Иисус Христос и получить автограф… самого Адольфа Гитлера.
- - Страна: США
Продолжительность: 02:06:53
-- Файл
Кодек: MPEG4/ISO/AVC H.264
Формат: MKV
Качество: BDRip-AVC
Видео: 1024x432 (2.35:1) | 59.940 fps | 3.9 Мбит/сек
Аудио: AC3 | 5.1 | 48 kHz | 384 kbps | 16 bit | Профессиональный многоголосый (Киномания) |
Субтитры: Русские, английские

MedifInfo

Video
ID : 1
Format : AVC
Format/Info : Advanced Video Codec
Format profile : High@L4.1
Format settings, CABAC : Yes
Format settings, ReFrames : 4 frames
Codec ID : V_MPEG4/ISO/AVC
Duration : 2h 6mn
Bit rate : 3 984 Kbps
Width : 1 024 pixels
Height : 432 pixels
Display aspect ratio : 2.35:1
Frame rate : 59.940 fps
Color space : YUV
Chroma subsampling : 4:2:0
Bit depth : 8 bits
Scan type : Progressive
Bits/(Pixel*Frame) : 0.150
Stream size : 3.46 GiB (89%)
Writing library : x264 core 146 r2538 121396c
Encoding settings : cabac=1 / ref=3 / deblock=1:0:0 / analyse=0x3:0x113 / me=umh / subme=9 / psy=1 / psy_rd=1.00:0.00 / mixed_ref=1 / me_range=24 / chroma_me=1 / trellis=2 / 8x8dct=1 / cqm=0 / deadzone=21,11 / fast_pskip=1 / chroma_qp_offset=-2 / threads=12 / lookahead_threads=3 / sliced_threads=0 / nr=0 / decimate=1 / interlaced=0 / bluray_compat=0 / constrained_intra=0 / bframes=16 / b_pyramid=2 / b_adapt=2 / b_bias=0 / direct=1 / weightb=1 / open_gop=0 / weightp=2 / keyint=250 / keyint_min=25 / scenecut=40 / intra_refresh=0 / rc=2pass / mbtree=0 / bitrate=3984 / ratetol=1.0 / qcomp=0.60 / qpmin=0 / qpmax=69 / qpstep=4 / cplxblur=20.0 / qblur=0.5 / ip_ratio=1.40 / pb_ratio=1.30 / aq=1:1.00
Language : English
Default : Yes
Forced : No
Audio
ID : 2
Format : AC-3
Format/Info : Audio Coding 3
Mode extension : CM (complete main)
Codec ID : A_AC3
Duration : 2h 6mn
Bit rate mode : Constant
Bit rate : 384 Kbps
Channel(s) : 6 channels
Channel positions : Front: L C R, Side: L R, LFE
Sampling rate : 48.0 KHz
Bit depth : 16 bits
Compression mode : Lossy
Stream size : 349 MiB (9%)
Title : профессиональный многоголосый (Киномания)
Language : Russian
Default : Yes
Forced : No
Text #1
ID : 3
Format : UTF-8
Codec ID : S_TEXT/UTF8
Codec ID/Info : UTF-8 Plain Text
Language : Russian
Default : No
Forced : No
Text #2
ID : 4
Format : UTF-8
Codec ID : S_TEXT/UTF8
Codec ID/Info : UTF-8 Plain Text
Language : English
Default : No
Forced : No
Menu
00:00:00.000 : en:Chapter 1
00:04:41.907 : en:Chapter 2
00:08:11.032 : en:Chapter 3
00:11:49.042 : en:Chapter 4
00:14:14.437 : en:Chapter 5
00:17:19.413 : en:Chapter 6
00:22:14.583 : en:Chapter 7
00:24:51.448 : en:Chapter 8
00:26:52.152 : en:Chapter 9
00:30:15.564 : en:Chapter 10
00:36:31.564 : en:Chapter 11
00:41:10.426 : en:Chapter 12
00:44:41.387 : en:Chapter 13
00:47:42.401 : en:Chapter 14
00:50:23.729 : en:Chapter 15
00:54:47.534 : en:Chapter 16
00:56:31.138 : en:Chapter 17
01:00:16.112 : en:Chapter 18
01:03:08.743 : en:Chapter 19
01:05:31.386 : en:Chapter 20
01:07:47.313 : en:Chapter 21
01:10:43.531 : en:Chapter 22
01:13:36.329 : en:Chapter 23
01:16:11.358 : en:Chapter 24
01:18:57.107 : en:Chapter 25
01:21:20.042 : en:Chapter 26
01:23:28.420 : en:Chapter 27
01:25:16.737 : en:Chapter 28
01:26:58.046 : en:Chapter 29
01:31:21.935 : en:Chapter 30
01:36:57.061 : en:Chapter 31
01:38:53.427 : en:Chapter 32
01:41:32.545 : en:Chapter 33
01:49:18.260 : en:Chapter 34
01:56:05.667 : en:Chapter 35
02:00:05.907 : en:Chapter 36

Индиана Джонс: и Королевство хрустального черепа / Indiana Jones and the Kingdom of the Crystal Skull (2008)

«In May, the adventure continues»- Информация
Название: Индиана Джонс: и Королевство хрустального черепа
Оригинальное название: Indiana Jones and the Kingdom of the Crystal Skull
Год выхода: 2008
Жанр: Боевик, приключения
Режиссер: Стивен Спилберг
Сценарий: Джордж Лукас, Дэвид Кепп, Джефф Натансон
Продюсер: Фрэнк Маршалл, Кэтлин Кеннеди, Кристи Макоско Кригер
В ролях: Харрисон Форд, Кейт Бланшетт, Шайа ЛаБаф, Карен Аллен, Рэй Уинстон, Джон Хёрт, Джим Бродбент, Игорь Жижикин, Дмитрий Дьяченко, Илья Волох
--Сюжет:
1957 год, разгар холодной войны. Советские солдаты, возглавляемые агентом Ириной Спалько, похищают Мэрион Рэйвенвуд — давнюю возлюбленную Индианы Джонса, ставя профессора перед выбором: бездействие и смерть Мэрион или помощь советской разведке в поисках легендарного Хрустального черепа в обмен на свободу женщины.- - Страна: США
Продолжительность: 02:02:35
-- Файл
Кодек: MPEG4/ISO/AVC H.264
Формат: MKV
Качество: BDRip-AVC
Видео: 1024x432 (2.35:1) | 59.940 fps | 4.0 Мбит/сек
Аудио: AC3 | 5.1 | 48 kHz | 448 kbps | 16 bit | Дубляж |

MedifInfo

Video
ID : 1
Format : AVC
Format/Info : Advanced Video Codec
Format profile : High@L4.1
Format settings, CABAC : Yes
Format settings, ReFrames : 4 frames
Codec ID : V_MPEG4/ISO/AVC
Duration : 2h 2mn
Bit rate : 4 097 Kbps
Width : 1 024 pixels
Height : 432 pixels
Display aspect ratio : 2.35:1
Frame rate : 59.940 fps
Color space : YUV
Chroma subsampling : 4:2:0
Bit depth : 8 bits
Scan type : Progressive
Bits/(Pixel*Frame) : 0.155
Stream size : 3.43 GiB (88%)
Writing library : x264 core 146 r2538 121396c
Encoding settings : cabac=1 / ref=3 / deblock=1:0:0 / analyse=0x3:0x113 / me=umh / subme=9 / psy=1 / psy_rd=1.00:0.00 / mixed_ref=1 / me_range=24 / chroma_me=1 / trellis=2 / 8x8dct=1 / cqm=0 / deadzone=21,11 / fast_pskip=1 / chroma_qp_offset=-2 / threads=12 / lookahead_threads=3 / sliced_threads=0 / nr=0 / decimate=1 / interlaced=0 / bluray_compat=0 / constrained_intra=0 / bframes=16 / b_pyramid=2 / b_adapt=2 / b_bias=0 / direct=1 / weightb=1 / open_gop=0 / weightp=2 / keyint=250 / keyint_min=25 / scenecut=40 / intra_refresh=0 / rc=2pass / mbtree=0 / bitrate=4097 / ratetol=1.0 / qcomp=0.60 / qpmin=0 / qpmax=69 / qpstep=4 / cplxblur=20.0 / qblur=0.5 / ip_ratio=1.40 / pb_ratio=1.30 / aq=1:1.00
Language : English
Default : Yes
Forced : No
Audio
ID : 2
Format : AC-3
Format/Info : Audio Coding 3
Mode extension : CM (complete main)
Codec ID : A_AC3
Duration : 2h 2mn
Bit rate mode : Constant
Bit rate : 448 Kbps
Channel(s) : 6 channels
Channel positions : Front: L C R, Side: L R, LFE
Sampling rate : 48.0 KHz
Bit depth : 16 bits
Compression mode : Lossy
Stream size : 393 MiB (10%)
Title : дубляж CEE
Language : Russian
Default : Yes
Forced : No
 
Показать сообщения:    

Текущее время: 10-Дек 19:34

Часовой пояс: UTC + 3


Вы не можете начинать темы
Вы не можете отвечать на сообщения
Вы не можете редактировать свои сообщения
Вы не можете удалять свои сообщения
Вы не можете голосовать в опросах
Вы не можете прикреплять файлы к сообщениям
Вы не можете скачивать файлы