[Цитировать]
BOT2

Игра престолов / Game of Thrones Сезон: 4, Серии: 1-10 из 10-- Производство: США, Великобритания
Жанр: Фэнтези, Драма, Приключения
Перевод: Дубляж+Профессиональный многоголосый закадровый
Вид субтитров: Вшитые отключаемые, Softsub SRT (.srt)
Язык субтитров: Русские (Forced), Русские (Blu-ray EUR), Русские (7Kingdoms), Русские (Александр Митраков & Илья Белкин), Английские, Английские (SDH)
Продолжительность: 10 серий, ~ 01:00:00 серия
Режиссер: Алан Тейлор, Даниэль Минахан, Дэвид Наттер--Актеры: Лина Хиди, Питер Динклэйдж, Мишель Фэйрли, Эмилия Кларк, Кит Харингтон, Николай Костер-Валдау, Иэн Глен, Эйден Гиллен, Элфи Оуэн-Аллен, Мэйси Уильямс, Софи Тёрнер, Джек Глисон, Айзек Хемпстед-Райт, Ричард Мэдден, Джером Флинн, Конлет Хилл, Дональд Самптер, Рори МакКанн, Амрита Ачария, Чарльз Дэнс, Джон Брэдли, Кристиан Нэйрн, Сибель Кекилли, Джеймс Космо, Стивен Диллэйн, Гетин Энтони, Гвендолин Кристи, Натали Дормер, Уна Чаплин--Описание:
В захватывающем четвертом сезоне сериала по мотивам бестселлеров Джорджа Р. Р. Мартина, Ланнистеры продолжают править Вестеросом с железного трона, но сумеет ли семейство справиться с собственным его и пережить интриги многочисленных врагов? Непоколебимый Станнис Баретеон восстанавливает свою армию на драконьем камне, а с юга надвигается новая опасность- Оберин Мертелл по прозвищу «Красный змей дорна», презирающий дом Ланнистеров, приезжает в королевскую гавань на свадьбу Джоффри, на стене ночному дозору противостоят превосходные силы Манса Налетчика и его армии одичалых, за которыми следует куда более зловещий враг, тем временем Дейенерис Таргариен вместе с тремя драконами и армией безупречных намеревается «освободить» крупнейший восточный город работорговцев- Миэрин, что должно помочь ей набрать сил для выполнения главнейшей цели- вернуть железный трон своей семье.-- --Качество видео: BDRip 1080р / 60fps / Исходник: Blu-ray EUR 1080p (HDclub)
Формат: MKV
Видео кодек: AVC
Аудио кодек:AC3
Видео: AVC/H.264, 1920х1080 at 59,940 fps, ~18600 kbps, 0,150 bpp
Аудио 1: Русский, AC3, 48.0 KHz, 6 channels, 640 Kbps (Дубляж «Кравец-рекордс»)
Аудио 2: Русский, AC3, 48.0 KHz, 6 channels, 640 Kbps (Профессиональный многоголосый закадровый LostFilm)
Аудио 3: Русский, AC3, 48.0 KHz, 6 channels, 640 Kbps (Профессиональный многоголосый закадровый Fox)
Аудио 4: Русский, AC3, 48.0 KHz, 6 channels, 640 Kbps (Профессиональный многоголосый закадровый AlexFilm)
Аудио 5: Украинский, AC3, 48.0 KHz, 6 channels, 640 Kbps (Профессиональный многоголосый закадровый Omicron)
Аудио 6: Английский, AC3, 48.0 KHz, 6 channels, 640 Kbps
Навигация по главам: есть--Релиз by:

Список серий

Сезон 4, Серии 1-10
01: Two Swords / Два меча
02: The Lion and the Rose / Лев и Роза
03: Breaker of Chains / Разрушительница оков
04: Oathkeeper / Верный клятве
05: First of His Name / Первый этого имени
06: The Laws of Gods and Men / Законы богов и людей
07: Mockingbird / Пересмешник
08: The Mountain and the Viper / Гора и Змей
09: The Watchers on the Wall / Дозорные на Стене
10: The Children / Дети

Mediainfo

General
Unique ID : 203673578490975139115207871779433013886 (0x993A1AB7F7C7FA43B65282E705BAE27E)
Complete name : A:\Фильмы\1080p\Игра престолов 4 сезон BDrip 1080p 60fps R.G HD-Films\01 - Два меча.mkv
Format : Matroska
Format version : Version 4 / Version 2
File size : 9.14 GiB
Duration : 58mn 43s
Overall bit rate : 22.3 Mbps
Movie name : R.G HD-Film By Tiberiumsun69
Encoded date : UTC 2015-06-07 08:21:22
Writing application : mkvmerge v7.9.0 ('Birds') 64bit
Writing library : libebml v1.3.1 + libmatroska v1.4.2
Attachements : Cover.png
Video
ID : 1
Format : AVC
Format/Info : Advanced Video Codec
Format profile : High@L4.1
Format settings, CABAC : Yes
Format settings, ReFrames : 4 frames
Codec ID : V_MPEG4/ISO/AVC
Duration : 58mn 43s
Bit rate : 18.6 Mbps
Width : 1 920 pixels
Height : 1 080 pixels
Display aspect ratio : 16:9
Frame rate mode : Constant
Frame rate : 59.880 fps
Original frame rate : 59.940 fps
Color space : YUV
Chroma subsampling : 4:2:0
Bit depth : 8 bits
Scan type : Progressive
Bits/(Pixel*Frame) : 0.150
Stream size : 7.38 GiB (81%)
Title : R.G HD-Film By Tiberiumsun69
Writing library : x264 core 146 r2538 121396c
Encoding settings : cabac=1 / ref=4 / deblock=1:0:0 / analyse=0x3:0x113 / me=umh / subme=11 / psy=1 / psy_rd=1.00:0.10 / mixed_ref=1 / me_range=32 / chroma_me=1 / trellis=2 / 8x8dct=1 / cqm=0 / deadzone=21,11 / fast_pskip=0 / chroma_qp_offset=-3 / threads=12 / lookahead_threads=1 / sliced_threads=0 / nr=0 / decimate=1 / interlaced=0 / bluray_compat=0 / constrained_intra=0 / bframes=3 / b_pyramid=2 / b_adapt=2 / b_bias=0 / direct=3 / weightb=1 / open_gop=0 / weightp=2 / keyint=600 / keyint_min=59 / scenecut=40 / intra_refresh=0 / rc_lookahead=60 / rc=2pass / mbtree=1 / bitrate=18600 / ratetol=1.0 / qcomp=0.60 / qpmin=0 / qpmax=69 / qpstep=4 / cplxblur=20.0 / qblur=0.5 / vbv_maxrate=50000 / vbv_bufsize=62500 / nal_hrd=none / filler=0 / ip_ratio=1.40 / aq=1:1.00
Language : English
Default : Yes
Forced : No
Audio #1
ID : 2
Format : AC-3
Format/Info : Audio Coding 3
Mode extension : CM (complete main)
Format settings, Endianness : Big
Codec ID : A_AC3
Duration : 58mn 43s
Bit rate mode : Constant
Bit rate : 640 Kbps
Channel(s) : 6 channels
Channel positions : Front: L C R, Side: L R, LFE
Sampling rate : 48.0 KHz
Compression mode : Lossy
Stream size : 269 MiB (3%)
Title : Дубляж Kravec
Language : Russian
Default : Yes
Forced : No
Audio #2
ID : 3
Format : AC-3
Format/Info : Audio Coding 3
Mode extension : CM (complete main)
Format settings, Endianness : Big
Codec ID : A_AC3
Duration : 58mn 43s
Bit rate mode : Constant
Bit rate : 640 Kbps
Channel(s) : 6 channels
Channel positions : Front: L C R, Side: L R, LFE
Sampling rate : 48.0 KHz
Compression mode : Lossy
Stream size : 269 MiB (3%)
Title : Многоголосый , закадровый LostFilm
Language : Russian
Default : No
Forced : No
Audio #3
ID : 4
Format : AC-3
Format/Info : Audio Coding 3
Mode extension : CM (complete main)
Format settings, Endianness : Big
Codec ID : A_AC3
Duration : 58mn 43s
Bit rate mode : Constant
Bit rate : 640 Kbps
Channel(s) : 6 channels
Channel positions : Front: L C R, Side: L R, LFE
Sampling rate : 48.0 KHz
Compression mode : Lossy
Stream size : 269 MiB (3%)
Title : Многоголосый, закадровый Fox
Language : Russian
Default : No
Forced : No
Audio #4
ID : 5
Format : AC-3
Format/Info : Audio Coding 3
Mode extension : CM (complete main)
Format settings, Endianness : Big
Codec ID : A_AC3
Duration : 58mn 43s
Bit rate mode : Constant
Bit rate : 640 Kbps
Channel(s) : 6 channels
Channel positions : Front: L C R, Side: L R, LFE
Sampling rate : 48.0 KHz
Compression mode : Lossy
Stream size : 269 MiB (3%)
Title : Многоголосый, закадровый AlexFilm
Language : Russian
Default : No
Forced : No
Audio #5
ID : 6
Format : AC-3
Format/Info : Audio Coding 3
Mode extension : CM (complete main)
Format settings, Endianness : Big
Codec ID : A_AC3
Duration : 58mn 43s
Bit rate mode : Constant
Bit rate : 640 Kbps
Channel(s) : 6 channels
Channel positions : Front: L C R, Side: L R, LFE
Sampling rate : 48.0 KHz
Compression mode : Lossy
Stream size : 269 MiB (3%)
Title : Многоголосый, закадровый Omicron
Language : Ukrainian
Default : No
Forced : No
Audio #6
ID : 7
Format : AC-3
Format/Info : Audio Coding 3
Mode extension : CM (complete main)
Format settings, Endianness : Big
Codec ID : A_AC3
Duration : 58mn 43s
Bit rate mode : Constant
Bit rate : 640 Kbps
Channel(s) : 6 channels
Channel positions : Front: L C R, Side: L R, LFE
Sampling rate : 48.0 KHz
Compression mode : Lossy
Stream size : 269 MiB (3%)
Title : Оригинал
Language : English
Default : No
Forced : No
Text #1
ID : 8
Format : UTF-8
Codec ID : S_TEXT/UTF8
Codec ID/Info : UTF-8 Plain Text
Title : Форсированные
Language : Russian
Default : Yes
Forced : No
Text #2
ID : 9
Format : UTF-8
Codec ID : S_TEXT/UTF8
Codec ID/Info : UTF-8 Plain Text
Title : Полные Blu ray
Language : Russian
Default : No
Forced : No
Text #3
ID : 10
Format : UTF-8
Codec ID : S_TEXT/UTF8
Codec ID/Info : UTF-8 Plain Text
Title : Полные (7Kingdoms.ru)
Language : Russian
Default : No
Forced : No
Text #4
ID : 11
Format : UTF-8
Codec ID : S_TEXT/UTF8
Codec ID/Info : UTF-8 Plain Text
Title : Полные (Александр Митраков & Илья Белкин)
Language : Russian
Default : No
Forced : No
Text #5
ID : 12
Format : UTF-8
Codec ID : S_TEXT/UTF8
Codec ID/Info : UTF-8 Plain Text
Title : Полные
Language : English
Default : No
Forced : No
Text #6
ID : 13
Format : UTF-8
Codec ID : S_TEXT/UTF8
Codec ID/Info : UTF-8 Plain Text
Title : Полные SDH
Language : English
Default : No
Forced : No
Menu
00:00:00.000 : en:00:00:00.000
00:00:07.007 : en:00:00:07.007
00:01:50.485 : en:00:01:50.485
00:03:38.760 : en:00:03:38.760
00:09:27.776 : en:00:09:27.776
00:17:01.979 : en:00:17:01.979
00:25:16.265 : en:00:25:16.265
00:36:17.842 : en:00:36:17.842
00:46:36.252 : en:00:46:36.252
00:56:51.325 : en:00:56:51.325
Скриншоты:

[Цитировать]
BOT2

Первые 1-3 сезона будут немного позже. Всем приятного просмотра

[Цитировать]
ZHz

2886Первые 1-3 сезона будут немного позже. Всем приятного просмотра
они же есть https://60-fps.org/viewtopic.php?t=50

[Цитировать]
BOT2

Кстати да, ну значит не будем сюда выкладывать:)

[Цитировать]
ETOBOG

а пятый?

[Цитировать]
August Feller

КОГДА 5 будет!? а то 8 серия в 30 фпс ужасна просто((( Глаз мазолит при просмотре и нечего не понятно. Так что 60 фпс нужен срочно

[Цитировать]
ENIGMA

Да, 5 бы сезон не помешал, было бы классно!
Спасибо за 4 !)

[Цитировать]
Альберт

Спасибо за раздачу брат
 
Показать сообщения:    

Текущее время: 07-Дек 19:22

Часовой пояс: UTC + 3


Вы не можете начинать темы
Вы не можете отвечать на сообщения
Вы не можете редактировать свои сообщения
Вы не можете удалять свои сообщения
Вы не можете голосовать в опросах
Вы не можете прикреплять файлы к сообщениям
Вы не можете скачивать файлы