[Цитировать]
Kryl

«Неправдоподобная, но правдивая история»- Информация
Название: Игра на понижение
Оригинальное название: The Big Short
Год выхода: 2015
Жанр: Драма, Комедия, Биография
Режиссер: Адам МакКей
Сценарий: Чарльз Рэндольф, Адам МакКей, Майкл Льюис
Продюсер: Деде Гарднер, Джереми Клейнер, Арнон Милчен
В ролях: Кристиан Бэйл, Стив Карелл, Райан Гослинг, Брэд Питт, Мелисса Лео, Хамиш Линклэйтер, Джон Магаро, Рейф Сполл, Джереми Стронг, Мариса Томей
--Сюжет:
Когда речь идет о деньгах, совесть молчит. А уж если речь об огромных деньгах!.. Это основанная на реальных событиях история нескольких провидцев, которые независимо друг от друга предсказали мировой экономический кризис 2008 года задолго до того, как о нем зашептались в кулуарах на Уолл-стрит. И предсказав, стали на нем зарабатывать. Сами того не желая.
- Страна: США
Продолжительность: 02:10:15

Файл
Кодек: MPEG4/ISO/AVC H.264
Формат: MKV
Качество: BDRip 720p | 60 fps
Видео: 1280 x 534 (2.397) | 59.940 fps | 8.0 Мбит/сек
Аудио 1: AC3 | 2.0 | 48 kHz | 192 kbps | 16 bit | Дубляж (Чистый звук) |
Аудио 2: AC3 | 5.1 | 48 kHz | 384 kbps | 16 bit | ENG |
Субтитры: English

MedifInfo

Видео
Идентификатор : 1
Формат : AVC
Формат/Информация : Advanced Video Codec
Профиль формата : High@L4.1
Параметр CABAC формата : Да
Параметр ReFrames формата : 8 кадров
Идентификатор кодека : V_MPEG4/ISO/AVC
Продолжительность : 2 ч. 10 м.
Битрейт : 7999 Кбит/сек
Ширина : 1280 пикселей
Высота : 534 пикселя
Соотношение сторон : 2,40:1
Режим частоты кадров : Постоянный
Частота кадров : 59,880 кадров/сек
Частота кадров в оригинале : 59,940 кадров/сек
Цветовое пространство : YUV
Субдискретизация насыщенности : 4:2:0
Битовая глубина : 8 бит
Тип развёртки : Прогрессивная
Бит/(Пиксели*Кадры) : 0.195
Размер потока : 7,10 Гбайт (91%)
Заголовок : www.60-fps.org
Библиотека кодирования : x264 core 148 r2638 7599210
Настройки программы : cabac=1 / ref=8 / deblock=1:-3:-3 / analyse=0x3:0x133 / me=esa / subme=9 / psy=1 / psy_rd=1.00:0.25 / mixed_ref=1 / me_range=32 / chroma_me=1 / trellis=2 / 8x8dct=1 / cqm=0 / deadzone=6,6 / fast_pskip=1 / chroma_qp_offset=-4 / threads=12 / lookahead_threads=1 / sliced_threads=0 / nr=0 / decimate=0 / interlaced=0 / bluray_compat=0 / constrained_intra=0 / bframes=3 / b_pyramid=2 / b_adapt=2 / b_bias=0 / direct=3 / weightb=1 / open_gop=0 / weightp=2 / keyint=599 / keyint_min=59 / scenecut=40 / intra_refresh=0 / rc_lookahead=60 / rc=2pass / mbtree=1 / bitrate=7999 / ratetol=1.0 / qcomp=0.80 / qpmin=0 / qpmax=69 / qpstep=4 / cplxblur=20.0 / qblur=0.5 / vbv_maxrate=62500 / vbv_bufsize=78125 / nal_hrd=none / filler=0 / ip_ratio=1.10 / aq=1:0.50
Default : Да
Forced : Нет
Аудио #1
Идентификатор : 2
Формат : AC-3
Формат/Информация : Audio Coding 3
Расширение режима : CM (complete main)
Параметр Endianness формата : Big
Идентификатор кодека : A_AC3
Продолжительность : 2 ч. 10 м.
Вид битрейта : Постоянный
Битрейт : 192 Кбит/сек
Каналы : 2 канала
Расположение каналов : Front: L R
Частота : 48,0 КГц
Битовая глубина : 16 бит
Метод сжатия : С потерями
Задержка видео : 42 мс.
Размер потока : 179 Мбайт (2%)
Заголовок : Дублированный (чистый звук)
Язык : Russian
Default : Да
Forced : Нет
Аудио #2
Идентификатор : 3
Формат : AC-3
Формат/Информация : Audio Coding 3
Расширение режима : CM (complete main)
Параметр Endianness формата : Big
Идентификатор кодека : A_AC3
Продолжительность : 2 ч. 10 м.
Вид битрейта : Постоянный
Битрейт : 384 Кбит/сек
Каналы : 6 каналов
Расположение каналов : Front: L C R, Side: L R, LFE
Частота : 48,0 КГц
Битовая глубина : 16 бит
Метод сжатия : С потерями
Размер потока : 358 Мбайт (4%)
Заголовок : ENG
Язык : English
Default : Нет
Forced : Нет
Текст #1
Идентификатор : 4
Формат : UTF-8
Идентификатор кодека : S_TEXT/UTF8
Идентификатор кодека/Информация : UTF-8 Plain Text
Заголовок : Full
Язык : English
Default : Нет
Forced : Нет
Текст #2
Идентификатор : 5
Формат : UTF-8
Идентификатор кодека : S_TEXT/UTF8
Идентификатор кодека/Информация : UTF-8 Plain Text
Заголовок : Full SDH
Язык : English
Default : Нет
Forced : Нет
Меню
00:00:00.000 : en:00:00:00.000
00:09:24.564 : en:00:09:24.564
00:15:47.572 : en:00:15:47.572
00:19:03.059 : en:00:19:03.059
00:25:59.516 : en:00:25:59.516
00:28:49.978 : en:00:28:49.978
00:37:24.242 : en:00:37:24.242
00:42:54.489 : en:00:42:54.489
00:49:36.682 : en:00:49:36.682
00:57:01.835 : en:00:57:01.835
01:02:09.893 : en:01:02:09.893
01:10:52.957 : en:01:10:52.957
01:17:03.244 : en:01:17:03.244
01:20:57.102 : en:01:20:57.102
01:29:53.221 : en:01:29:53.221
01:34:37.046 : en:01:34:37.046
01:41:15.903 : en:01:41:15.903
01:45:30.491 : en:01:45:30.491
01:49:34.651 : en:01:49:34.651
01:55:16.076 : en:01:55:16.076
02:03:44.500 : en:02:03:44.500

Релиз подготовлен 60 - fps

[Цитировать]
ENIGMA

Спасибо Большое :)
 
Показать сообщения:    

Текущее время: 18-Окт 05:05

Часовой пояс: UTC + 3


Вы не можете начинать темы
Вы не можете отвечать на сообщения
Вы не можете редактировать свои сообщения
Вы не можете удалять свои сообщения
Вы не можете голосовать в опросах
Вы не можете прикреплять файлы к сообщениям
Вы не можете скачивать файлы