[Цитировать]
kamikkadze

Iggy Azalea ft. Charli XCX & Ariana Grande - Fancy & Problem (2014) (Live) HDTVRip 720p | 60 fps

Информация о Клипе:
Исполнители: Iggy Azalea ft. Charli XCX & Ariana Grande
Название: Fancy & Problem (Live Music Awards)
Год выпуска: 2014 г.
Жанр: Pop
Продолжительность: 00:05:39

Файл:
Формат видео: MKV
Качество видео: HDTVRip 720p | 60 fps
Видео кодек: H.264
Аудио кодек: AC3
Видео: 1280x720 | 60,000 fps | 36,7 Мбит/сек
Аудио: AC3 | 2 channels | 48 kHz | 384 Кбит/сек

Автор Рипа:

MediaInfo

Видео
Идентификатор : 1
Формат : AVC
Формат/Информация : Advanced Video Codec
Профиль формата : High@L4.1
Параметр CABAC формата : Да
Параметр ReFrames формата : 6 кадров
Идентификатор кодека : V_MPEG4/ISO/AVC
Продолжительность : 5 м. 39 с.
Битрейт : 36,7 Мбит/сек
Ширина : 1280 пикселей
Высота : 720 пикселей
Соотношение сторон : 16:9
Режим частоты кадров : Постоянный
Частота кадров : 60,000 кадров/сек
Цветовое пространство : YUV
Субдискретизация насыщенности : 4:2:0
Битовая глубина : 8 бит
Тип развёртки : Прогрессивная
Бит/(Пиксели*Кадры) : 0.664
Размер потока : 1,45 Гбайт (97%)
Заголовок : Iggy Azalea ft. Charli XCX & Ariana Grande - Fancy & Problem « R.G 60-FPS Rip By Kamikkadze »
Язык : English
Default : Да
Forced : Нет
Цветовой диапазон : Limited
Основные цвета : BT.709
Характеристики трансфера : BT.709
Коэффициенты матрицы : BT.709
Аудио
Идентификатор : 2
Формат : AC-3
Формат/Информация : Audio Coding 3
Расширение режима : CM (complete main)
Параметр Endianness формата : Big
Идентификатор кодека : A_AC3
Продолжительность : 5 м. 39 с.
Вид битрейта : Постоянный
Битрейт : 384 Кбит/сек
Каналы : 2 канала
Расположение каналов : Front: L R
Частота : 48,0 КГц
Метод сжатия : С потерями
Размер потока : 15,5 Мбайт (1%)
Язык : English
Default : Да
Forced : Нет
Просьба к переливающим на другие сайты, в оформлении указывайте пожалуйста авторство рипа - Kamikkadze

Релиз подготовлен 60 - fps

 
Показать сообщения:    

Текущее время: 21-Сен 09:41

Часовой пояс: UTC + 3


Вы не можете начинать темы
Вы не можете отвечать на сообщения
Вы не можете редактировать свои сообщения
Вы не можете удалять свои сообщения
Вы не можете голосовать в опросах
Вы не можете прикреплять файлы к сообщениям
Вы не можете скачивать файлы