Lady Gaga - Poker Face (2009) Master | ProRes Jennifer Lopez ft. Iggy Azalea - Booty (2014) Master | 60fps Jennifer Lopez - I'm Into You ft. Lil Wayne (2011) Master | ProRes
  1. Longevity:
    6 years 7 months
    Posts:
    2414
    Gender:
    Male
    -Iggy Azalea - Fancy ft. Charli XCX (2014) Master | ProRes -Информация о Клипе
    Исполнитель: Iggy Azalea
    Название: Fancy ft. Charli XCX
    Год выхода: 2014
    Продолжительность: 00:03:20-Описание:
    Клип на песню был снят в Калифорнии, в конце февраля 2014. Видео является ремейком на американский комедийный фильм Бестолковые. Действие клипа разворачивается в средней школе. Премьера клипа на канале VEVO состоялась 4 марта 2014. На данный момент количество просмотров видео превышает 800 миллионов.-Файл
    Кодек: APCH
    Контейнер: MOV
    Формат: ProRes
    Качество: Master
    Видео: 1888 x 1062 (1.778) | 23.976 fps | 169 Мбит/сек
    Аудио: PCM | 1536 Кбит/сек | 2.0 канала, 48.0 КГц

    MI

    Формат : MPEG-4
    Профиль формата : QuickTime
    Идентификатор кодека : qt
    Размер файла : 3,99 Гбайт
    Продолжительность : 3 м. 20 с.
    Режим общего битрейта : Переменный
    Общий поток : 171 Мбит/сек
    Дата кодирования : UTC 2014-03-03 23:20:49
    Дата пометки : UTC 2014-03-03 23:25:40
    Библиотека кодирования : Apple QuickTime
    Media/UUID : 1921C791-04A5-4110-B5B6-4E6B3D9F44F6
    Видео
    Идентификатор : 1
    Формат : ProRes
    Версия формата : Version 0
    Профиль формата : High
    Идентификатор кодека : apch
    Продолжительность : 3 м. 20 с.
    Вид битрейта : Переменный
    Битрейт : 169 Мбит/сек
    Ширина : 1888 пикселей
    Ширина оригинала : 1920 пикселей
    Высота : 1062 пикселя
    Высота оригинала : 1080 пикселей
    Соотношение сторон : 16:9
    Режим частоты кадров : Постоянный
    Частота кадров : 23,976 кадра/сек
    Цветовое пространство : YUV
    Субдискретизация насыщенности : 4:2:2
    Тип развёртки : Прогрессивная
    Бит/(Пиксели*Кадры) : 3.523
    Размер потока : 3,95 Гбайт (99%)
    Библиотека кодирования : Apple
    Язык : English
    Дата кодирования : UTC 2014-03-03 23:20:49
    Дата пометки : UTC 2014-03-03 23:25:40
    Основные цвета : BT.709
    Характеристики трансфера : BT.709
    Коэффициенты матрицы : BT.709
    matrix_coefficients_Original : BT.709
    Аудио
    Идентификатор : 2
    Формат : PCM
    Параметр Endianness формата : Little
    Параметр Sign формата : Signed
    Идентификатор кодека : sowt
    Продолжительность : 3 м. 20 с.
    Вид битрейта : Постоянный
    Битрейт : 1536 Кбит/сек
    Каналы : 2 канала
    Расположение каналов : Front: L R
    Частота : 48,0 КГц
    Битовая глубина : 16 бит
    Размер потока : 36,7 Мбайт (1%)
    Язык : English
    Дата кодирования : UTC 2014-03-03 23:20:49
    Дата пометки : UTC 2014-03-03 23:25:40
    Прочее
    Идентификатор : 3
    Тип : Time code
    Формат : QuickTime TC
    Продолжительность : 3 м. 20 с.
    Временной код первого кадра : 01:00:00:00
    TimeCode_Striped/String : Да
    Язык : English
    Дата кодирования : UTC 2014-03-03 23:25:40
    Дата пометки : UTC 2014-03-03 23:25:40

    Release was prepared by 60-fps.org



You cannot post new topics in this forum
You cannot reply to topics in this forum
You cannot edit your posts in this forum
You cannot delete your posts in this forum
You cannot vote in polls in this forum
You cannot attach files in this forum
You cannot download files in this forum