Lady Gaga - Bad Romance (2009) Master | ProRes Lady Gaga - Poker Face (2009) Master | ProRes Jennifer Lopez - Waiting For Tonight (1999) 540p | Master | ProRes Lady Gaga - Paparazzi (2009) Master | ProRes Britney Spears - Hold It Against Me (2011) Master | ProRes Rihanna feat. Drake - Work (2016) Master | ProRes Lady Gaga - Born This Way (2011) Master | ProRes Rihanna - Shut Up And Drive (2007) Master | ProRes
  1. Longevity:
    5 years 2 months
    Posts:
    2418
    Gender:
    Male
    -Iggy Azalea - Black Widow ft. Rita Ora (2014) Master | ProRes --Информация о Клипе
    Исполнитель: Iggy Azalea
    Название: Black Widow ft. Rita Ora
    Год выхода: 2017
    Продолжительность: 00:05:35-Описание:
    Видеоклип на песню «Black Widow» был снят в стиле фильмов про Кунг-фу(в том числе и фильма Убить Билла). Режиссёрами видео выступили Director X и сама Азалия. 11 августа на VEVO был залит тизер клипа. Премьера видео на канале VEVO состоялась 13 августа 2014.-Файл
    Кодек: APCH
    Контейнер: MOV
    Формат: ProRes
    Качество: Master
    Видео: 1888 x 1062 (1.778) | 23.976 fps | 165 Мбит/сек
    Аудио: PCM | 2304 Кбит/сек | 2.0 канала, 48.0 КГц

    MI

    Формат : MPEG-4
    Профиль формата : QuickTime
    Идентификатор кодека : qt
    Размер файла : 6,54 Гбайт
    Продолжительность : 5 м. 35 с.
    Режим общего битрейта : Переменный
    Общий поток : 168 Мбит/сек
    Дата кодирования : UTC 2014-08-22 11:02:41
    Дата пометки : UTC 2014-09-04 08:53:55
    Библиотека кодирования : Apple QuickTime 7.7.1
    com.apple.quicktime.player.movie.audio.m : (Binary)
    Видео
    Идентификатор : 4
    Формат : ProRes
    Версия формата : Version 0
    Профиль формата : High
    Идентификатор кодека : apch
    Продолжительность : 5 м. 35 с.
    Вид битрейта : Переменный
    Битрейт : 165 Мбит/сек
    Ширина : 1888 пикселей
    Ширина оригинала : 1920 пикселей
    Высота : 1062 пикселя
    Высота оригинала : 1080 пикселей
    Соотношение сторон : 16:9
    Режим частоты кадров : Постоянный
    Частота кадров : 23,976 кадра/сек
    Цветовое пространство : YUV
    Субдискретизация насыщенности : 4:2:2
    Тип развёртки : Прогрессивная
    Бит/(Пиксели*Кадры) : 3.442
    Размер потока : 6,46 Гбайт (99%)
    Библиотека кодирования : Apple
    Язык : English
    Дата кодирования : UTC 2014-09-04 08:53:55
    Дата пометки : UTC 2014-09-04 08:53:55
    Основные цвета : BT.709
    Характеристики трансфера : BT.709
    Коэффициенты матрицы : BT.709
    matrix_coefficients_Original : BT.709
    Аудио
    Идентификатор : 2
    Формат : PCM
    Параметр Endianness формата : Big
    Параметр Sign формата : Unsigned
    Идентификатор кодека : in24
    Продолжительность : 5 м. 35 с.
    Вид битрейта : Постоянный
    Битрейт : 2304 Кбит/сек
    Каналы : 2 канала
    Расположение каналов : Front: L R
    Частота : 48,0 КГц
    Битовая глубина : 24 бит
    Размер потока : 92,0 Мбайт (1%)
    Язык : English
    Дата кодирования : UTC 2014-08-22 11:02:06
    Дата пометки : UTC 2014-09-04 08:53:55
    Прочее
    Идентификатор : 3
    Тип : Time code
    Формат : QuickTime TC
    Продолжительность : 5 м. 35 с.
    Временной код первого кадра : 00:59:50:00
    TimeCode_Striped/String : Да
    Язык : English
    Дата кодирования : UTC 2014-08-22 11:02:06
    Дата пометки : UTC 2014-09-04 08:53:55

    Release was prepared by 60 - fps

  2. Longevity:
    3 years
    Posts:
    22
    Gender:
    Male
    Классный клип, кто не смотрел советую. Там известный актёр Голливуда снимается ещё, и клип как мини фильм. Супер вобщем Крутой Ниндзя Фильм
    11-Jul-2017 19:19 (after 1 day 21 hour)


You cannot post new topics in this forum
You cannot reply to topics in this forum
You cannot edit your posts in this forum
You cannot delete your posts in this forum
You cannot vote in polls in this forum
You cannot attach files in this forum
You cannot download files in this forum