Властелин колец: Трилогия / The Lord of the Rings: Trilogy (2001-2003) BDRip-AVC | Extended Cut | 60 fps Принц Персии: Пески времени / Prince of Persia: The Sands of Time (2010) BDRip 1080p | 60 fps К звёздам / Ad Astra (2019) BDRip 1080p | 60 fps Достать ножи / Knives Out (2019) BDRip 1080p | 60 fps День, когда Земля остановилась / The Day the Earth Stood Still (2008) BDRip 1080p | 60 fps Удивительное путешествие доктора Дулиттла / Dolittle (2020) BDRip 1080p | 60 fps 21 мост / 21 Bridges (2019) BDRip 1080p | 60 fps Паразиты / Gisaengchung (2019) BDRip 1080p | 60 fps
  1. Longevity:
    5 years 11 months
    Posts:
    2419
    Gender:
    Male
    «Они там, где закон не действует»- Информация
    Название: Идём со мной
    Оригинальное название: Blackway
    Год выхода: 2015
    Жанр: Триллер
    Режиссер: Даниэль Альфредсон
    Сценарий: Джо Ганджеми, Грегори Джейкобс, Кастл Фриман мл.
    Продюсер: Рик Дагдэйл, Эллен Голдсмит-Вейн, Энтони Хопкинс
    В ролях: Джулия Стайлз, Александр Людвиг, Энтони Хопкинс, Рэй Лиотта, Тэйлор Хиксон, Локлин Манро, Хэл Холбрук, Крис Готье, Линда Дарлоу, Алекс Паунович, Стив Бачич
    --Сюжет:
    Лиллиан возвращается в родной город после учебы и становится жертвой сексуальных домогательств со стороны человека по имени Блэквэй. Когда девушка понимает, что полицейские порядки в городе не действуют, она обращается за помощью к друзьям: бывшему леснику и его приятелю. В процессе поиска они узнают, что Лиллиан — далеко не единственная жертва преступника. Услышав имя Блэквэя, жители городка испытывают страх и отказываются помогать, избегая общения. Джулия и её помощники остаются один на один с сумасшедшим преступником…- Страна: США
    Продолжительность: 01:26:40

    Файл
    Кодек: MPEG4/ISO/AVC/H.264
    Формат: MKV
    Качество: BDRip 720p | 60 fps
    Видео: 1280 x 536 (2.388) | 60.000 fps | 8.0 Мбит/сек
    Аудио 1: AC3 | 5.1 | 48 kHz | 384 kbps | 16 bit | Дубляж - iTunes |
    Аудио 2: AC3 | 5.1 | 48 kHz | 640 kbps | 16 bit | ENG |

    MedifInfo

    Видео
    Идентификатор : 1
    Формат : AVC
    Формат/Информация : Advanced Video Codec
    Профиль формата : High@L4.1
    Параметр CABAC формата : Да
    Параметр ReFrames формата : 3 кадра
    Идентификатор кодека : V_MPEG4/ISO/AVC
    Продолжительность : 1 ч. 26 м.
    Вид битрейта : Переменный
    Битрейт : 7792 Кбит/сек
    Максимальный битрейт : 8000 Кбит/сек
    Ширина : 1280 пикселей
    Высота : 536 пикселей
    Соотношение сторон : 2,40:1
    Режим частоты кадров : Постоянный
    Частота кадров : 60,000 кадров/сек
    Стандарт вещания : PAL
    Цветовое пространство : YUV
    Субдискретизация насыщенности : 4:2:0
    Битовая глубина : 8 бит
    Тип развёртки : Прогрессивная
    Бит/(Пиксели*Кадры) : 0.189
    Размер потока : 4,72 Гбайт (87%)
    Заголовок : www.60-fps.org
    Язык : English
    Default : Да
    Forced : Нет
    Основные цвета : BT.601 NTSC
    Характеристики трансфера : BT.601
    Коэффициенты матрицы : BT.601
    colour_range : Limited
    Аудио #1
    Идентификатор : 2
    Формат : AC-3
    Формат/Информация : Audio Coding 3
    Расширение режима : CM (complete main)
    Параметр Endianness формата : Big
    Идентификатор кодека : A_AC3
    Продолжительность : 1 ч. 26 м.
    Вид битрейта : Постоянный
    Битрейт : 384 Кбит/сек
    Каналы : 6 каналов
    Расположение каналов : Front: L C R, Side: L R, LFE
    Частота : 48,0 КГц
    Битовая глубина : 16 бит
    Метод сжатия : С потерями
    Размер потока : 238 Мбайт (4%)
    Заголовок : Дубляж - iTunes
    Язык : Russian
    Default : Да
    Forced : Нет
    Аудио #2
    Идентификатор : 3
    Формат : AC-3
    Формат/Информация : Audio Coding 3
    Расширение режима : CM (complete main)
    Параметр Endianness формата : Big
    Идентификатор кодека : A_AC3
    Продолжительность : 1 ч. 26 м.
    Вид битрейта : Постоянный
    Битрейт : 640 Кбит/сек
    Каналы : 6 каналов
    Расположение каналов : Front: L C R, Side: L R, LFE
    Частота : 48,0 КГц
    Битовая глубина : 16 бит
    Метод сжатия : С потерями
    Размер потока : 397 Мбайт (7%)
    Заголовок : Eng
    Default : Нет
    Forced : Нет
    Меню
    00:00:00.000 : en:00:00:00.000
    00:05:39.480 : en:00:05:39.480
    00:12:59.120 : en:00:12:59.120
    00:19:23.320 : en:00:19:23.320
    00:23:57.440 : en:00:23:57.440
    00:33:34.800 : en:00:33:34.800
    00:42:30.960 : en:00:42:30.960
    00:51:07.880 : en:00:51:07.880
    00:58:02.640 : en:00:58:02.640
    01:05:44.680 : en:01:05:44.680
    01:10:55.280 : en:01:10:55.280
    01:19:52.240 : en:01:19:52.240

    Release was prepared by 60 - fps

  2. bot

    Longevity:
    5 years 11 months
    Posts:
    410
    Gender:
    Unknown
    Топик был перенесен из форума Новинки Кино 60 FPS в форум Зарубежные фильмы 60 FPS
    Kryl
    19-Nov-2016 19:38 (after 14 days)


You cannot post new topics in this forum
You cannot reply to topics in this forum
You cannot edit your posts in this forum
You cannot delete your posts in this forum
You cannot vote in polls in this forum
You cannot attach files in this forum
You cannot download files in this forum