[Цитировать]
Kryl

«32 survivors, room for 12»- Информация
Название: И грянул шторм
Оригинальное название: The Finest Hours
Год выхода: 2016
Жанр: боевик, триллер, драма, история
Режиссер: Крэйг Гиллеспи
Сценарий: Скотт Сильвер, Пол Тэймеси, Эрик Джонсон
Продюсер: Дороти Офиеро, Джеймс Уитакер, Дуглас С. Меррифилд
В ролях: Крис Пайн, Кейси Аффлек, Бен Фостер, Эрик Бана, Холлидей Грейнджер, Джон Ортис, Кайл Галлнер, Джон Магаро, Грэм МакТавиш, Майкл Рэймонд-Джеймс
--Сюжет:
Сюжет фильма основан на реальных событиях, произошедших в 1952 году, когда сотрудники береговой охраны в самый разгар шторма, используя деревянные моторные лодки, пытались спасти экипаж двух нефтяных танкеров.- Страна: США
Продолжительность: 01:57:17

Файл
Кодек: MPEG4/ISO/AVC H.264
Формат: MKV
Качество: WEBRip 720p | 60 fps
Видео: 1280 x 534 (2.397) | 59.940 fps | 7.0 Мбит/сек
Аудио 1: AC3 | 2.0 | 48 kHz | 384 kbps | 16 bit | Line - Чистый звук |
Аудио 2: AC3 | 5.1 | 48 kHz | 384 kbps | 16 bit | ENG |

MedifInfo

Видео
Идентификатор : 1
Формат : AVC
Формат/Информация : Advanced Video Codec
Профиль формата : High@L4.1
Параметр CABAC формата : Да
Параметр ReFrames формата : 3 кадра
Идентификатор кодека : V_MPEG4/ISO/AVC
Продолжительность : 1 ч. 57 м.
Вид битрейта : Переменный
Битрейт : 6819 Кбит/сек
Максимальный битрейт : 7000 Кбит/сек
Ширина : 1280 пикселей
Высота : 534 пикселя
Соотношение сторон : 2,40:1
Режим частоты кадров : Постоянный
Частота кадров : 59,880 кадров/сек
Частота кадров в оригинале : 59,940 кадров/сек
Стандарт вещания : PAL
Цветовое пространство : YUV
Субдискретизация насыщенности : 4:2:0
Битовая глубина : 8 бит
Тип развёртки : Прогрессивная
Бит/(Пиксели*Кадры) : 0.167
Размер потока : 5,59 Гбайт (88%)
Заголовок : www.60-fps.org
Язык : English
Default : Да
Forced : Нет
Основные цвета : BT.601 NTSC
Характеристики трансфера : BT.601
Коэффициенты матрицы : BT.601
colour_range : Limited
Аудио #1
Идентификатор : 2
Формат : AC-3
Формат/Информация : Audio Coding 3
Расширение режима : CM (complete main)
Параметр Endianness формата : Big
Идентификатор кодека : A_AC3
Продолжительность : 1 ч. 57 м.
Вид битрейта : Постоянный
Битрейт : 384 Кбит/сек
Каналы : 2 канала
Расположение каналов : Front: L R
Частота : 48,0 КГц
Битовая глубина : 16 бит
Метод сжатия : С потерями
Размер потока : 322 Мбайт (5%)
Заголовок : Дубляж - Line
Язык : Russian
Default : Да
Forced : Нет
Аудио #2
Идентификатор : 3
Формат : AC-3
Формат/Информация : Audio Coding 3
Расширение режима : CM (complete main)
Параметр Endianness формата : Big
Идентификатор кодека : A_AC3
Продолжительность : 1 ч. 57 м.
Вид битрейта : Постоянный
Битрейт : 384 Кбит/сек
Каналы : 6 каналов
Расположение каналов : Front: L C R, Side: L R, LFE
Частота : 48,0 КГц
Битовая глубина : 16 бит
Метод сжатия : С потерями
Размер потока : 322 Мбайт (5%)
Заголовок : ENG
Язык : English
Default : Нет
Forced : Нет
Меню
00:00:00.000 : en:Meeting Miriam
00:09:14.000 : en:The Dance Hall
00:14:22.000 : en:The Pendleton Under Pressure
00:19:52.000 : en:Distress Call
00:22:57.000 : en:What Should We Do?
00:28:34.000 : en:Ship Spotted
00:34:05.000 : en:Sybert's Plan
00:36:59.000 : en:Volunteers Needed
00:42:51.000 : en:Aiming For The Shoal
00:45:01.000 : en:The Guard Heads Out
00:46:59.000 : en:Miriam Visits The Station
00:48:44.000 : en:Wave!
00:50:12.000 : en:Miriam Confronts Cluff
00:55:53.000 : en:Crossing The Bar
01:04:13.000 : en:Beaching The Pendleton
01:08:58.000 : en:Riding The Waves
01:11:38.000 : en:Time Is Running Out
01:16:16.000 : en:The Waiting Game
01:20:30.000 : en:The Rescue
01:33:30.000 : en:The Long Trip Home
01:42:27.000 : en:Safe Harbor
01:49:40.000 : en:End Credits

Релиз подготовлен 60 - fps

[Цитировать]
ENIGMA

Большое Спасибо ! Овации

[Цитировать]
adterorist1

Почему только вип могут качать, смысл тогда от этого сайта, стараешься раздаешь а скачать не можешь!!! Злой Злой Злой

[Цитировать]
Kryl

5699Почему только вип могут качать, смысл тогда от этого сайта, стараешься раздаешь а скачать не можешь!!! Злой Злой Злой
Да все очень просто .
За сервак платить не чем . Вот и вся причина .
если для вас 50р в месяц не подъемная сумма , могу в долг дать когда у самого будут Смеюсь

[Цитировать]
kirya1802

Ну как так то блин не так давно уже пытались сделать платно, но тогда хотя бы топик оставляли бесплатным , а сейчас то чё за фигня то????? Ваще запломбировались Плачу

[Цитировать]
Haykoo775

Почему только вип могут качать, смысл тогда от этого сайта, стараешься раздаешь а скачать не можешь!!! Злой Злой Злойснимаю все мои раздачи

[Цитировать]
Николайbel

Единственный нормальный сайт с 60 фпс фильмами, мб даже докину денег на хостинг. Но если такая идея платежа останется, скачивать и раздавать будет просто некому и соответственно платить тоже.

[Цитировать]
Kryl

5725Единственный нормальный сайт с 60 фпс фильмами, мб даже докину денег на хостинг. Но если такая идея платежа останется, скачивать и раздавать будет просто некому и соответственно платить тоже.
на данном промежутке времени без вариантов . Или так или вообще ни как ... Когда была возможность самому платить , проблем не было .
 
Показать сообщения:    

Текущее время: 03-Дек 16:43

Часовой пояс: UTC + 3


Вы не можете начинать темы
Вы не можете отвечать на сообщения
Вы не можете редактировать свои сообщения
Вы не можете удалять свои сообщения
Вы не можете голосовать в опросах
Вы не можете прикреплять файлы к сообщениям
Вы не можете скачивать файлы