[Цитировать]
Kryl

«You were right to be afraid of the dark»- Информация
Название: И гаснет свет...
Оригинальное название: Lights Out
Год выхода: 2016
Жанр: Ужасы
Режиссер: Дэвид Ф. Сандберг
Сценарий: Эрик Хайссерер, Дэвид Ф. Сандберг
Продюсер: Джеймс Ван, Ричард Бренер, Майкл Клиар, ...
В ролях: Тереза Палмер, Гэбриел Бейтман, Александр ДиПерсиа, Билли Бёрк, Мария Белло, Алисия Вела-Бэйли, Энди Ошо, Роландо Бойс, Мария Расселл, Элизабет Пан
--Сюжет:
Когда Ребекка покинула родной дом, она думала, что её детские страхи остались позади. Ребенком она никогда не была уверена, что реально, а что нет, когда гас свет, и теперь её младший брат Мартин переживает те же необъяснимые и ужасные события, которые когда-то испытывали на прочность её рассудок и угрожали её безопасности. Пугающее нечто, таинственным образом привязанное к их матери Софи, появилось вновь. Но на этот раз Ребекка подбирается к разгадке истины, и уже не остается сомнений в том, что их жизни в опасности, как только будет погашен свет.- Страна: США
Продолжительность: 01:20:55

Файл
Кодек: MPEG4/ISO/AVC/H.264
Формат: MKV
Качество: BDRip 720p | 60 fps
Видео: 1280 x 534 (2.397) | 59.940 fps | 10.0 Мбит/сек
Аудио 1: AC3 | 5.1 | 48 kHz | 384 kbps | 16 bit | Дубляж - iTunes |
Аудио 2: AC3 | 5.1 | 48 kHz | 448 kbps | 16 bit | ENG |
Субтитры: Русские, Eng

MedifInfo

Видео
Идентификатор : 1
Формат : AVC
Формат/Информация : Advanced Video Codec
Профиль формата : High@L4.1
Параметр CABAC формата : Да
Параметр ReFrames формата : 3 кадра
Идентификатор кодека : V_MPEG4/ISO/AVC
Продолжительность : 1 ч. 20 м.
Вид битрейта : Переменный
Битрейт : 9589 Кбит/сек
Максимальный битрейт : 10000 Кбит/сек
Ширина : 1280 пикселей
Высота : 534 пикселя
Соотношение сторон : 2,40:1
Режим частоты кадров : Постоянный
Частота кадров : 59,880 кадров/сек
Частота кадров в оригинале : 59,940 кадров/сек
Стандарт вещания : PAL
Цветовое пространство : YUV
Субдискретизация насыщенности : 4:2:0
Битовая глубина : 8 бит
Тип развёртки : Прогрессивная
Бит/(Пиксели*Кадры) : 0.234
Размер потока : 5,42 Гбайт (90%)
Заголовок : www.60-fps.org
Язык : English
Default : Да
Forced : Нет
Основные цвета : BT.601 NTSC
Характеристики трансфера : BT.601
Коэффициенты матрицы : BT.601
colour_range : Limited
Аудио #1
Идентификатор : 2
Формат : AC-3
Формат/Информация : Audio Coding 3
Расширение режима : CM (complete main)
Параметр Endianness формата : Big
Идентификатор кодека : A_AC3
Продолжительность : 1 ч. 20 м.
Вид битрейта : Постоянный
Битрейт : 384 Кбит/сек
Каналы : 6 каналов
Расположение каналов : Front: L C R, Side: L R, LFE
Частота : 48,0 КГц
Битовая глубина : 16 бит
Метод сжатия : С потерями
Размер потока : 222 Мбайт (4%)
Заголовок : Дубляж - iTunes
Язык : Russian
Default : Да
Forced : Нет
Аудио #2
Идентификатор : 3
Формат : AC-3
Формат/Информация : Audio Coding 3
Расширение режима : CM (complete main)
Параметр Endianness формата : Big
Идентификатор кодека : A_AC3
Продолжительность : 1 ч. 20 м.
Вид битрейта : Постоянный
Битрейт : 448 Кбит/сек
Каналы : 6 каналов
Расположение каналов : Front: L C R, Side: L R, LFE
Частота : 48,0 КГц
Битовая глубина : 16 бит
Метод сжатия : С потерями
Размер потока : 259 Мбайт (4%)
Заголовок : Eng
Default : Нет
Forced : Нет
Текст #1
Идентификатор : 4
Формат : UTF-8
Идентификатор кодека : S_TEXT/UTF8
Идентификатор кодека/Информация : UTF-8 Plain Text
Заголовок : Forced
Язык : Russian
Default : Да
Forced : Нет
Текст #2
Идентификатор : 5
Формат : UTF-8
Идентификатор кодека : S_TEXT/UTF8
Идентификатор кодека/Информация : UTF-8 Plain Text
Заголовок : Full
Язык : Russian
Default : Нет
Forced : Нет
Текст #3
Идентификатор : 6
Формат : UTF-8
Идентификатор кодека : S_TEXT/UTF8
Идентификатор кодека/Информация : UTF-8 Plain Text
Заголовок : Full
Язык : English
Default : Нет
Forced : Нет
Текст #4
Идентификатор : 7
Формат : UTF-8
Идентификатор кодека : S_TEXT/UTF8
Идентификатор кодека/Информация : UTF-8 Plain Text
Заголовок : SDH
Язык : English
Default : Нет
Forced : Нет
Меню
00:00:00.000 : en:00:00:00.000
00:10:01.559 : en:00:10:01.559
00:21:07.349 : en:00:21:07.349
00:30:12.936 : en:00:30:12.936
00:40:57.664 : en:00:40:57.664
00:50:38.285 : en:00:50:38.285
00:58:43.603 : en:00:58:43.603
01:09:54.190 : en:01:09:54.190
01:16:21.285 : en:01:16:21.285

Релиз подготовлен 60 - fps



Последний раз редактировалось: Kryl (2016-11-10 21:31), всего редактировалось 2 раз(а)

[Цитировать]
georg

Есть смысл ждать 1080р?

[Цитировать]
Kryl

georg,
Нет

Топик был перенесен из форума Новинки Кино 60 FPS в форум Зарубежные фильмы 60 FPS
Kryl

[Цитировать]
rcctp

thank uuuuuu

[Цитировать]
ENIGMA

Спасибо Улыбаюсь

[Цитировать]
Kryl

ENIGMA,
Пожалуйста .
 
Показать сообщения:    

Текущее время: 09-Дек 22:23

Часовой пояс: UTC + 3


Вы не можете начинать темы
Вы не можете отвечать на сообщения
Вы не можете редактировать свои сообщения
Вы не можете удалять свои сообщения
Вы не можете голосовать в опросах
Вы не можете прикреплять файлы к сообщениям
Вы не можете скачивать файлы