Rammstein (БЕЗ ЦЕНЗУРЫ)| WEBRip 1080p | 60 fps Britney Spears - Oops! I Did It Again Uncut (2009) HD 1080p | 60 fps Jennifer Lopez ft. Iggy Azalea - Booty (2014) Full HD 1080p | 60 fps Britney Spears - ...Baby One More Time (2009) Full HD 1080p | 60 fps BLACKPINK | WEBRip 1080p | 60 fps Sia - Chandelier (2014 ) Full HD 1080p | 60 fps Dan Balan - Chica Bomb (2010) WEBRip 1080p | 60 fps Lady Gaga - Poker Face (2009) Full HD 1080p | 60 fps
  1. Longevity:
    5 years 10 months
    Posts:
    283
    Gender:
    Male
    Hyuna - Red (2014) HDTVRip | 60 fps

    Информация о Клипе:
    Исполнители:Hyuna
    Название:Red
    Год выпуска: 2014 г.
    Жанр: Поп
    Страна: Корея
    Продолжительность: 03.32мин

    Файл:
    Формат видео: MKV
    Качество видео: HDTVRip 1080p | 60fps
    Видео кодек: H.264
    Аудио кодек: AC3
    Видео: 1920x1080 | 59.940 fps | 9099 Кбит/сек
    Аудио: AC3 | 2 channels | 48 kHz |384 Кбит/сек

    Автор Релиза:Kamikkadze

    Отчёт MediaInfo

    Видео
    Идентификатор : 1
    Формат : AVC
    Формат/Информация : Advanced Video Codec
    Профиль формата : High@L4.1
    Параметр CABAC формата : Да
    Параметр ReFrames формата : 4 кадра
    Идентификатор кодека : V_MPEG4/ISO/AVC
    Продолжительность : 3 м. 32 с.
    Битрейт : 9099 Кбит/сек
    Ширина : 1920 пикселей
    Высота : 1080 пикселей
    Соотношение сторон : 16:9
    Режим частоты кадров : Постоянный
    Частота кадров : 59,880 кадров/сек
    Частота кадров в оригинале : 59,940 кадров/сек
    Цветовое пространство : YUV
    Субдискретизация насыщенности : 4:2:0
    Битовая глубина : 8 бит
    Тип развёртки : Прогрессивная
    Бит/(Пиксели*Кадры) : 0.073
    Размер потока : 230 Мбайт (94%)
    Заголовок : Rip By Kamikkadze(Специально для Сайта 60-fps.org)
    Библиотека кодирования : x264 core 130 r2273 b3065e6
    Настройки программы : cabac=1 / ref=4 / deblock=1:-2:-1 / analyse=0x3:0x113 / me=umh / subme=10 / psy=1 / psy_rd=1.00:0.20 / mixed_ref=1 / me_range=24 / chroma_me=1 / trellis=2 / 8x8dct=1 / cqm=0 / deadzone=21,11 / fast_pskip=0 / chroma_qp_offset=-3 / threads=6 / lookahead_threads=1 / sliced_threads=0 / nr=0 / decimate=1 / interlaced=0 / bluray_compat=0 / constrained_intra=0 / bframes=3 / b_pyramid=2 / b_adapt=2 / b_bias=0 / direct=3 / weightb=1 / open_gop=0 / weightp=2 / keyint=250 / keyint_min=25 / scenecut=40 / intra_refresh=0 / rc_lookahead=60 / rc=crf / mbtree=1 / crf=21.0 / qcomp=0.60 / qpmin=0 / qpmax=69 / qpstep=4 / vbv_maxrate=50000 / vbv_bufsize=50000 / crf_max=0.0 / nal_hrd=none / ip_ratio=1.40 / aq=1:1.00
    Default : Да
    Forced : Нет
    Аудио
    Идентификатор : 2
    Формат : AC-3
    Формат/Информация : Audio Coding 3
    Расширение режима : CM (complete main)
    Параметр Endianness формата : Big
    Идентификатор кодека : A_AC3
    Продолжительность : 3 м. 32 с.
    Вид битрейта : Постоянный
    Битрейт : 384 Кбит/сек
    Каналы : 2 канала
    Расположение каналов : Front: L R
    Частота : 44,1 КГц
    Битовая глубина : 16 бит
    Метод сжатия : С потерями
    Размер потока : 9,72 Мбайт (4%)
    Заголовок : Rip By Kamikkadze(Специально для Сайта 60-fps.org)
    Default : Да
    Forced : Нет

    Release was prepared by 60 - fps



    Last edited by kamikkadze on 2015-05-30 12:53; edited 3 times in total
  2. Longevity:
    6 years 1 month
    Posts:
    310
    Gender:
    Male
    Что изображено на четвёртом скрине?
    03-Apr-2015 18:47 (after 11 hours)
  3. Longevity:
    6 years 1 month
    Posts:
    2418
    Gender:
    Male
    2291Что изображено на четвёртом скрине?
    Додумайся сам ))))
    03-Apr-2015 19:26 (after 39 minutes)
  4. Longevity:
    5 years 10 months
    Posts:
    9
    Gender:
    Unknown
    mimok писал(а):
    Что изображено на четвёртом скрине?
    Без косяка сложно разобрать
    08-Apr-2015 14:50 (after 4 days)


You cannot post new topics in this forum
You cannot reply to topics in this forum
You cannot edit your posts in this forum
You cannot delete your posts in this forum
You cannot vote in polls in this forum
You cannot attach files in this forum
You cannot download files in this forum