1. Longevity:
    6 years 9 months
    Posts:
    2413
    Gender:
    Male
    «Naughty, nice. You better believe»- Информация о фильме
    Название: Хранители снов
    Оригинальное название: Rise of the Guardians
    Год выхода: 2012
    Жанр: Мультфильм, фэнтези, приключения, семейный
    Режиссер: Питер Рэмси
    Продюсер: Нэнси Бернштейн, Кристина Стейнберг, Гильермо дель Торо
    Сценарий: Дэвид Линдси-Эбейр, Уильям Джойс
    Роли озвучивали: Крис Пайн, Алек Болдуин, Джуд Лоу, Айла Фишер, Хью Джекман, Дакота Гойо, Хамани Гриффин, Камиль МакФедден, Джорджи Грив, Эмили Нордвинд
    -О фильме:
    Когда злой дух Кромешник посягает на самое дорогое — детские мечты, Северянин, Ледяной Джек, Кролик, Зубная Фея и Песочный Человек впервые объединяются, чтобы создать команду Хранителей снов…- - Страна: США
    Продолжительность: 01:37:11
    --Файл
    Кодек: MPEG4/ISO/AVC H.264
    Формат: MKV
    Качество: BDRip 1080p
    Видео: 1920 x 1080 (1.778) | 59.940 fps | 19,9 Мбит/сек
    Аудио : AC3 | 5.1 | 48 kHz | 640 Кбит/сек | 16 bit | Дубляж |

    MediaInfo

    Видео
    Идентификатор : 1
    Формат : AVC
    Формат/Информация : Advanced Video Codec
    Профиль формата : [email protected]
    Параметр CABAC формата : Да
    Параметр ReFrames формата : 4 кадра
    Идентификатор кодека : V_MPEG4/ISO/AVC
    Продолжительность : 39 с.
    Битрейт : 19,9 Мбит/сек
    Ширина : 1920 пикселей
    Высота : 1080 пикселей
    Соотношение сторон : 16:9
    Режим частоты кадров : Постоянный
    Частота кадров : 60,000 кадров/сек
    Частота кадров в оригинале : 59,940 кадров/сек
    Цветовое пространство : YUV
    Субдискретизация насыщенности : 4:2:0
    Битовая глубина : 8 бит
    Тип развёртки : Прогрессивная
    Бит/(Пиксели*Кадры) : 0.160
    Размер потока : 94,3 Мбайт (95%)
    Default : Да
    Forced : Нет
    Аудио
    Идентификатор : 2
    Формат : AC-3
    Формат/Информация : Audio Coding 3
    Расширение режима : CM (complete main)
    Параметр Endianness формата : Big
    Идентификатор кодека : A_AC3
    Продолжительность : 39 с.
    Вид битрейта : Постоянный
    Битрейт : 640 Кбит/сек
    Каналы : 6 каналов
    Расположение каналов : Front: L C R, Side: L R, LFE
    Частота : 48,0 КГц
    Битовая глубина : 16 бит
    Метод сжатия : С потерями
    Задержка видео : 12 мс.
    Размер потока : 3,04 Мбайт (3%)
    Default : Да
    Forced : Нет

    Release was prepared by 60-fps.org

  2. Longevity:
    6 years 9 months
    Posts:
    111
    Gender:
    Male
    Сможеть сдеть мульт без 3d? Но в том же качестве?
    22-Jul-2015 13:25 (after 5 months 1 day)
  3. Longevity:
    6 years 9 months
    Posts:
    111
    Gender:
    Male
    Сделать*
    22-Jul-2015 13:25 (after 30 seconds)


You cannot post new topics in this forum
You cannot reply to topics in this forum
You cannot edit your posts in this forum
You cannot delete your posts in this forum
You cannot vote in polls in this forum
You cannot attach files in this forum
You cannot download files in this forum