Топ Топиков за 24 часа
 
Джон Уик 2 / John Wick: Chapter Two (2017) BDRip 720p | 60 fps Форсаж 8 / The Fate of the Furious (2017) BDRip 1080p | 60 fps Стражи Галактики. Часть 2 / Guardians of the Galaxy Vol. 2 (2017) BDRip 1080p | 60 fps Великая стена / The Great Wall (2016) BDRip 1080p | 60 fps Призрак в доспехах / Ghost in the Shell (2017) BDRip 1080p | 60 fps Форсаж 8 / The Fate of the Furious (2017) BDRip 720p | 60 fps Варкрафт / Warcraft (2016) BDRip 1080p | 60 fps Доктор Стрэндж / Doctor Strange (2016) BDRip 1080p | 60 fps Конг: Остров черепа / Kong: Skull Island (2017) BDRip 1080p | 60 fps Аватар / Avatar (2009) BDRip 1080p | 120 fps | Extended Collector's Cut | Experimental Чужой: Завет / Alien: Covenant (2016) BDRip 720p | 60 fps Логан / Logan (2017) BDRip 1080p | 60 fps
  1. Стаж:
    3 года 1 месяц
    Сообщений:
    2084
    Пол:
    Мужской
     
    «Naughty, nice. You better believe»- Информация о фильме
    Название: Хранители снов
    Оригинальное название: Rise of the Guardians
    Год выхода: 2012
    Жанр: Мультфильм, фэнтези, приключения, семейный
    Режиссер: Питер Рэмси
    Продюсер: Нэнси Бернштейн, Кристина Стейнберг, Гильермо дель Торо
    Сценарий: Дэвид Линдси-Эбейр, Уильям Джойс
    Роли озвучивали: Крис Пайн, Алек Болдуин, Джуд Лоу, Айла Фишер, Хью Джекман, Дакота Гойо, Хамани Гриффин, Камиль МакФедден, Джорджи Грив, Эмили Нордвинд
    -О фильме:
    Когда злой дух Кромешник посягает на самое дорогое — детские мечты, Северянин, Ледяной Джек, Кролик, Зубная Фея и Песочный Человек впервые объединяются, чтобы создать команду Хранителей снов…- - Страна: США
    Продолжительность: 01:37:11
    --Файл
    Кодек: MPEG4/ISO/AVC H.264
    Формат: MKV
    Качество: BDRip 1080p
    Видео: 1920 x 1080 (1.778) | 59.940 fps | 19,9 Мбит/сек
    Аудио : AC3 | 5.1 | 48 kHz | 640 Кбит/сек | 16 bit | Дубляж |

    MediaInfo

    Видео
    Идентификатор : 1
    Формат : AVC
    Формат/Информация : Advanced Video Codec
    Профиль формата : High@L4.2
    Параметр CABAC формата : Да
    Параметр ReFrames формата : 4 кадра
    Идентификатор кодека : V_MPEG4/ISO/AVC
    Продолжительность : 39 с.
    Битрейт : 19,9 Мбит/сек
    Ширина : 1920 пикселей
    Высота : 1080 пикселей
    Соотношение сторон : 16:9
    Режим частоты кадров : Постоянный
    Частота кадров : 60,000 кадров/сек
    Частота кадров в оригинале : 59,940 кадров/сек
    Цветовое пространство : YUV
    Субдискретизация насыщенности : 4:2:0
    Битовая глубина : 8 бит
    Тип развёртки : Прогрессивная
    Бит/(Пиксели*Кадры) : 0.160
    Размер потока : 94,3 Мбайт (95%)
    Default : Да
    Forced : Нет
    Аудио
    Идентификатор : 2
    Формат : AC-3
    Формат/Информация : Audio Coding 3
    Расширение режима : CM (complete main)
    Параметр Endianness формата : Big
    Идентификатор кодека : A_AC3
    Продолжительность : 39 с.
    Вид битрейта : Постоянный
    Битрейт : 640 Кбит/сек
    Каналы : 6 каналов
    Расположение каналов : Front: L C R, Side: L R, LFE
    Частота : 48,0 КГц
    Битовая глубина : 16 бит
    Метод сжатия : С потерями
    Задержка видео : 12 мс.
    Размер потока : 3,04 Мбайт (3%)
    Default : Да
    Forced : Нет

    Релиз подготовлен 60 - fps

  2. Стаж:
    3 года
    Сообщений:
    111
    Пол:
    Мужской
     
    Сможеть сдеть мульт без 3d? Но в том же качестве?
    22-Июл-2015 13:25 (спустя 5 месяцев 1 день)
  3. Стаж:
    3 года
    Сообщений:
    111
    Пол:
    Мужской
     
    Сделать*
    22-Июл-2015 13:25 (спустя 30 секунд)


Вы не можете начинать темы
Вы не можете отвечать на сообщения
Вы не можете редактировать свои сообщения
Вы не можете удалять свои сообщения
Вы не можете голосовать в опросах
Вы не можете прикреплять файлы к сообщениям
Вы не можете скачивать файлы