[Цитировать]
mimok

Хранитель луны / Mune, le gardien de la lune (2014) BDRip 720p | 60fps«Он не спасет мир. Он спасет пять миров!»- Информация о фильме
Название: Хранитель луны
Оригинальное название: Mune, le gardien de la lune
Год выхода: 2014
Жанр: Мультфильм
Режиссер: Александр Эбоян, Бенуа Филиппон
Продюсер: Дмитрий Рассам, Атон Сумаш, Алексис Вонарб
В ролях: Омар Си, Изиа Ижлен, Майкл Грегорио, Шафик Ахмад, Бенуа Аллемане, Шеннон Арчи, Федор Аткин, Джошуа Дж. Баллард, Дэмиен Буассо, Эммануэль Кюртиль
Описание фильма:
На диковинной планете, где смена дня и ночи осуществляется вручную, юного фавна Мьюна неожиданно избирают хранителем Луны. Но к своему ужасу, он почти сразу теряет ее! Воспользовавшись этим, царь подземного мира Некрос крадет и гасит Солнце. Теперь, чтобы спасти планету, Мьюн вместе с отважной девочкой из воска Глим и заносчивым Сохоном, хранителем Солнца, должны отправиться в удивительное и опасное путешествие.
Страна: Франция
Студия: Onyx Films, Orange Studio
Продолжительность: 01:21:26
Перевод: Дублированный
Субтитры:Отсутствуют

Дата мировой премьеры: 6 декабря 2014
Дата российской премьеры: 28 мая 2015, «Вольга»
Файл
Формат: MKV
Кодек: MPEG-4 AVC/H.264
Качество: BDRip 720p
Видео: ~ 5490 Кбит/сек, 1280 x 544, 60.000 кадров/сек
Аудио: AC3 5.1, 48.0 KHz, 640 Кбит/сек - Русский

MediaInfo

Общее
Уникальный идентификатор : 189771187996991618820174506979248222154 (0x8EC499F25EEB4CDE8064512F867AAFCA)
Полное имя : E:\Торренты\Mune, le gardien de la lune 60fps.mkv
Формат : Matroska
Версия формата : Version 4 / Version 2
Размер файла : 3,56 Гбайт
Продолжительность : 1 ч. 21 м.
Общий поток : 6254 Кбит/сек
Название фильма : Mune, le gardien de la lune (2014) Blu-ray Disc
Дата кодирования : UTC 2015-11-13 18:25:45
Программа кодирования : mkvmerge v6.9.1 ('Blue Panther') 64bit built on Apr 18 2014 18:23:38
Библиотека кодирования : libebml v1.3.0 + libmatroska v1.4.1
Видео
Идентификатор : 1
Формат : AVC
Формат/Информация : Advanced Video Codec
Профиль формата : High@L4.1
Параметр CABAC формата : Да
Параметр ReFrames формата : 6 кадров
Идентификатор кодека : V_MPEG4/ISO/AVC
Продолжительность : 1 ч. 21 м.
Битрейт : 5490 Кбит/сек
Ширина : 1280 пикселей
Высота : 544 пикселя
Соотношение сторон : 2,35:1
Режим частоты кадров : Постоянный
Частота кадров : 60,000 кадров/сек
Цветовое пространство : YUV
Субдискретизация насыщенности : 4:2:0
Битовая глубина : 8 бит
Тип развёртки : Прогрессивная
Бит/(Пиксели*Кадры) : 0.131
Размер потока : 3,12 Гбайт (88%)
Заголовок : Release by mimok
Библиотека кодирования : x264 core 130 r2273 b3065e6
Настройки программы : cabac=1 / ref=6 / deblock=1:1:1 / analyse=0x3:0x133 / me=umh / subme=8 / psy=1 / psy_rd=1.00:0.15 / mixed_ref=1 / me_range=20 / chroma_me=1 / trellis=2 / 8x8dct=1 / cqm=0 / deadzone=21,11 / fast_pskip=0 / chroma_qp_offset=-3 / threads=6 / lookahead_threads=2 / sliced_threads=0 / nr=0 / decimate=0 / interlaced=0 / bluray_compat=0 / constrained_intra=0 / bframes=8 / b_pyramid=2 / b_adapt=2 / b_bias=0 / direct=1 / weightb=1 / open_gop=0 / weightp=2 / keyint=250 / keyint_min=25 / scenecut=40 / intra_refresh=0 / rc=crf / mbtree=0 / crf=18.0 / qcomp=0.63 / qpmin=10 / qpmax=51 / qpstep=4 / ip_ratio=1.40 / pb_ratio=1.30 / aq=1:1.20
Default : Да
Forced : Нет
Аудио
Идентификатор : 2
Формат : AC-3
Формат/Информация : Audio Coding 3
Расширение режима : CM (complete main)
Параметр Endianness формата : Big
Идентификатор кодека : A_AC3
Продолжительность : 1 ч. 21 м.
Вид битрейта : Постоянный
Битрейт : 640 Кбит/сек
Каналы : 6 каналов
Расположение каналов : Front: L C R, Side: L R, LFE
Частота : 48,0 КГц
Битовая глубина : 16 бит
Метод сжатия : С потерями
Размер потока : 373 Мбайт (10%)
Заголовок : Dub
Язык : Russian
Default : Да
Forced : Нет
Скриншоты:

Релиз подготовлен 60 - fps

[Цитировать]
dzubakr

хороший мультик, необычный.
 
Показать сообщения:    

Текущее время: 19-Окт 04:47

Часовой пояс: UTC + 3


Вы не можете начинать темы
Вы не можете отвечать на сообщения
Вы не можете редактировать свои сообщения
Вы не можете удалять свои сообщения
Вы не можете голосовать в опросах
Вы не можете прикреплять файлы к сообщениям
Вы не можете скачивать файлы