Храброе сердце / Braveheart (1995) BDRip 1080p | 60 fps-- Информация о фильме
Название: Храброе сердце
Оригинальное название: Braveheart
Год выхода: 1995
Жанр: боевик, драма, военный, биография, история
Режиссер: Мэл Гибсон
Сценарий: Рэндалл Уоллес
В ролях: Мэл Гибсон, Софи Марсо, Патрик МакГуэн, Энгус МакФадьен, Брендан Глисон, Катрин МакКормак, Брайан Кокс, Джерард МакСорли, Мартин Мерфи, Томми Флэнаган
----О фильме:
Действие фильма начинается в 1280 году в Шотландии. Это история легендарного национального героя Уильяма Уолласа, посвятившего себя борьбе с англичанами при короле Эдварде Длинноногом.
Он рано лишился отца, погибшего от рук англичан, и его забрал к себе дядя Оргайл, который дал ему хорошее образование в Европе. На родину Уильям возвращается уже взрослым человеком, мечтающем завести семью и жить мирной жизнью.
Но судьба распорядилась иначе. Его невесту убили англичане, и он начал свой крестовый поход за свободу.
- - Страна: США
Продолжительность: 02:57:44
--Файл
Кодек: MPEG4/ISO/AVC H.264
Формат: MKV
Качество: BDRip
Видео:
1920x816 at | 59.940 fps | 12793 Мбит/сек-- Аудио 1: AC3 | 5.1 | 48 kHz | 384 kbps | 16 bit |Дубляж|
Аудио 2: AC3 | 2.0| 48 kHz | 320 kbps | 16 bit |Двухголосный, закадровый Премьер видео|
Аудио 3: AC3 | 5.1 | 48 kHz | 448 kbps | 16 bit |Многоголосый, закадровый Киномания|
Аудио 4: AC3 | 5.1 | 48 kHz | 384 kbps | 16 bit |Многоголосый, закадровый|
Аудио 5: AC3 | 5.1 | 48 kHz | 640 kbps | 16 bit |английский|

MedifInfo

General
Unique ID : 175416137433381436271350096246822234268 (0x83F7EB4F75068B5783220B151D65689C)
Complete name : A:1080p 60fpsХраброе сердце 1080p 60fps.mkv
Format : Matroska
Format version : Version 4 / Version 2
File size : 19.0 GiB
Duration : 2h 57mn
Overall bit rate : 15.3 Mbps
Encoded date : UTC 2014-09-19 18:21:43
Writing application : mkvmerge v7.2.0 ('On Every Street') 64bit built on Sep 13 2014 15:52:10
Writing library : libebml v1.3.0 + libmatroska v1.4.1
DURATION : 02:48:54.492000000
NUMBER_OF_FRAMES : 1417
NUMBER_OF_BYTES : 4267141
_STATISTICS_WRITING_APP : mkvmerge v7.2.0 ('On Every Street') 64bit built on Sep 13 2014 15:52:10
_STATISTICS_WRITING_DATE_UTC : 2014-09-19 18:21:43
_STATISTICS_TAGS : BPS DURATION NUMBER_OF_FRAMES NUMBER_OF_BYTES
Video
ID : 1
Format : AVC
Format/Info : Advanced Video Codec
Format profile : High@L4.1
Format settings, CABAC : Yes
Format settings, ReFrames : 4 frames
Codec ID : V_MPEG4/ISO/AVC
Duration : 2h 57mn
Bit rate : 12.8 Mbps
Width : 1 920 pixels
Height : 816 pixels
Display aspect ratio : 2.35:1
Frame rate : 59.940 fps
Color space : YUV
Chroma subsampling : 4:2:0
Bit depth : 8 bits
Scan type : Progressive
Bits/(Pixel*Frame) : 0.136
Stream size : 15.9 GiB (84%)
Writing library : x264 core 142 r2479 dd79a61
Encoding settings : cabac=1 / ref=4 / deblock=1:-1:-1 / analyse=0x3:0 / me=umh / subme=11 / psy=1 / psy_rd=1.00:0.10 / mixed_ref=1 / me_range=42 / chroma_me=0 / trellis=2 / 8x8dct=1 / cqm=0 / deadzone=21,11 / fast_pskip=0 / chroma_qp_offset=-3 / threads=12 / lookahead_threads=1 / sliced_threads=0 / nr=0 / decimate=0 / interlaced=0 / bluray_compat=0 / constrained_intra=0 / bframes=5 / b_pyramid=2 / b_adapt=2 / b_bias=0 / direct=1 / weightb=1 / open_gop=0 / weightp=2 / keyint=599 / keyint_min=59 / scenecut=40 / intra_refresh=0 / rc=crf / mbtree=0 / crf=18.0 / qcomp=0.60 / qpmin=0 / qpmax=69 / qpstep=4 / ip_ratio=1.40 / pb_ratio=1.30 / aq=1:0.90
Language : English
Default : Yes
Forced : No
DURATION : 02:57:44.465000000
NUMBER_OF_FRAMES : 639228
NUMBER_OF_BYTES : 17446159215
_STATISTICS_WRITING_APP : mkvmerge v7.2.0 ('On Every Street') 64bit built on Sep 13 2014 15:52:10
_STATISTICS_WRITING_DATE_UTC : 2014-09-19 18:21:43
_STATISTICS_TAGS : BPS DURATION NUMBER_OF_FRAMES NUMBER_OF_BYTES
Audio #1
ID : 2
Format : AC-3
Format/Info : Audio Coding 3
Mode extension : CM (complete main)
Codec ID : A_AC3
Duration : 2h 57mn
Bit rate mode : Constant
Bit rate : 384 Kbps
Channel(s) : 6 channels
Channel positions : Front: L C R, Side: L R, LFE
Sampling rate : 48.0 KHz
Bit depth : 16 bits
Compression mode : Lossy
Stream size : 488 MiB (3%)
Title : Дубляж
Language : Russian
Default : Yes
Forced : No
Audio #2
ID : 3
Format : AC-3
Format/Info : Audio Coding 3
Mode extension : CM (complete main)
Codec ID : A_AC3
Duration : 2h 57mn
Bit rate mode : Constant
Bit rate : 320 Kbps
Channel(s) : 2 channels
Channel positions : Front: L R
Sampling rate : 48.0 KHz
Bit depth : 16 bits
Compression mode : Lossy
Stream size : 407 MiB (2%)
Title : Двухголосный, закадровый Премьер видео
Language : Russian
Default : No
Forced : No
Audio #3
ID : 4
Format : AC-3
Format/Info : Audio Coding 3
Mode extension : CM (complete main)
Codec ID : A_AC3
Duration : 2h 57mn
Bit rate mode : Constant
Bit rate : 448 Kbps
Channel(s) : 6 channels
Channel positions : Front: L C R, Side: L R, LFE
Sampling rate : 48.0 KHz
Bit depth : 16 bits
Compression mode : Lossy
Stream size : 570 MiB (3%)
Title : Многоголосый, закадровый Киномания
Language : Russian
Default : No
Forced : No
Audio #4
ID : 5
Format : AC-3
Format/Info : Audio Coding 3
Mode extension : CM (complete main)
Codec ID : A_AC3
Duration : 2h 57mn
Bit rate mode : Constant
Bit rate : 384 Kbps
Channel(s) : 6 channels
Channel positions : Front: L C R, Side: L R, LFE
Sampling rate : 48.0 KHz
Bit depth : 16 bits
Compression mode : Lossy
Stream size : 488 MiB (3%)
Title : Многоголосый, закадровый
Language : Russian
Default : No
Forced : No
Audio #5
ID : 6
Format : AC-3
Format/Info : Audio Coding 3
Mode extension : CM (complete main)
Codec ID : A_AC3
Duration : 2h 57mn
Bit rate mode : Constant
Bit rate : 640 Kbps
Channel(s) : 6 channels
Channel positions : Front: L C R, Side: L R, LFE
Sampling rate : 48.0 KHz
Bit depth : 16 bits
Compression mode : Lossy
Stream size : 814 MiB (4%)
Title : Оригинал
Language : English
Default : No
Forced : No
Text #1
ID : 7
Format : VobSub
Muxing mode : zlib
Codec ID : S_VOBSUB
Codec ID/Info : The same subtitle format used on DVDs
Title : Форсированные
Language : Russian
Default : Yes
Forced : No
Text #2
ID : 8
Format : VobSub
Muxing mode : zlib
Codec ID : S_VOBSUB
Codec ID/Info : The same subtitle format used on DVDs
Title : Полные
Language : Russian
Default : No
Forced : No
Text #3
ID : 9
Format : VobSub
Muxing mode : zlib
Codec ID : S_VOBSUB
Codec ID/Info : The same subtitle format used on DVDs
Title : Полные
Language : English
Default : No
Forced : No
Menu
00:00:00.000 : en:00:00:00.000
00:07:25.528 : en:00:07:25.528
00:16:24.441 : en:00:16:24.441
00:22:00.694 : en:00:22:00.694
00:34:16.888 : en:00:34:16.888
00:39:49.678 : en:00:39:49.678
00:56:04.986 : en:00:56:04.986
01:00:01.264 : en:01:00:01.264
01:07:28.043 : en:01:07:28.043
01:11:51.932 : en:01:11:51.932
01:19:01.528 : en:01:19:01.528
01:33:03.202 : en:01:33:03.202
01:43:44.718 : en:01:43:44.718
01:53:55.453 : en:01:53:55.453
01:58:58.464 : en:01:58:58.464
02:17:15.477 : en:02:17:15.477
02:24:18.900 : en:02:24:18.900
02:28:49.795 : en:02:28:49.795
02:34:12.409 : en:02:34:12.409
02:36:32.091 : en:02:36:32.091
02:46:53.878 : en:02:46:53.878
02:50:43.066 : en:02:50:43.066


Последний раз редактировалось: bot (2016-07-07 11:21), всего редактировалось 2 раз(а)

[Цитировать]
Fragrance

Класс)
 
Показать сообщения:    

Текущее время: 21-Сен 15:28

Часовой пояс: UTC + 3


Вы не можете начинать темы
Вы не можете отвечать на сообщения
Вы не можете редактировать свои сообщения
Вы не можете удалять свои сообщения
Вы не можете голосовать в опросах
Вы не можете прикреплять файлы к сообщениям
Вы не можете скачивать файлы