«Все умирают, но не все живут по-настоящему»- Информация
Название: Храброе сердце
Оригинальное название: Braveheart
Год выхода: 1995
Жанр: драма, военный, биография, история
Режиссер: Мэл Гибсон
Сценарий: Рэндалл Уоллес
Продюсер: Брюс Дэвей, Мэл Гибсон, Алан Лэдд мл.
В ролях: Мэл Гибсон, Софи Марсо, Патрик МакГуэн, Энгус МакФадьен, Брендан Глисон, Катрин МакКормак, Брайан Кокс, Джерард МакСорли, Мартин Мерфи, Томми Флэнаган
--Сюжет:
Действие фильма начинается в 1280 году в Шотландии. Это история легендарного национального героя Уильяма Уолласа, посвятившего себя борьбе с англичанами при короле Эдварде Длинноногом.
Он рано лишился отца, погибшего от рук англичан, и его забрал к себе дядя Оргайл, который дал ему хорошее образование в Европе. На родину Уильям возвращается уже взрослым человеком, мечтающем завести семью и жить мирной жизнью.
Но судьба распорядилась иначе. Его невесту убили англичане, и он начал свой крестовый поход за свободу.
- - Страна: США
Продолжительность: 02:57:57

Файл
Кодек: MPEG4/ISO/AVC H.264
Формат: MKV
Качество: BDRip-AVC | 60 fps
Видео: 1024x432 (2.35:1) | 59.940 fps | 2.7 Мбит/сек
Аудио: AC3 | 5.1 | 48 kHz | 384 kbps | 16 bit | Дубляж |
Субтитры: русские (Форсированные), русские (Полные), английские (Полные)

MedifInfo

Video
ID : 1
Format : AVC
Format/Info : Advanced Video Codec
Format profile : High@L4.1
Format settings, CABAC : Yes
Format settings, ReFrames : 4 frames
Codec ID : V_MPEG4/ISO/AVC
Duration : 2h 57mn
Bit rate : 2 790 Kbps
Width : 1 024 pixels
Height : 432 pixels
Display aspect ratio : 2.35:1
Frame rate : 59.940 fps
Color space : YUV
Chroma subsampling : 4:2:0
Bit depth : 8 bits
Scan type : Progressive
Bits/(Pixel*Frame) : 0.105
Stream size : 3.39 GiB (86%)
Writing library : x264 core 146 r2538 121396c
Encoding settings : cabac=1 / ref=3 / deblock=1:0:0 / analyse=0x3:0x113 / me=umh / subme=11 / psy=1 / psy_rd=1.00:0.10 / mixed_ref=1 / me_range=32 / chroma_me=1 / trellis=2 / 8x8dct=1 / cqm=0 / deadzone=21,11 / fast_pskip=0 / chroma_qp_offset=-3 / threads=12 / lookahead_threads=3 / sliced_threads=0 / nr=0 / decimate=1 / interlaced=0 / bluray_compat=0 / constrained_intra=0 / bframes=16 / b_pyramid=2 / b_adapt=2 / b_bias=0 / direct=3 / weightb=1 / open_gop=0 / weightp=2 / keyint=250 / keyint_min=25 / scenecut=40 / intra_refresh=0 / rc_lookahead=40 / rc=2pass / mbtree=1 / bitrate=2790 / ratetol=1.0 / qcomp=0.60 / qpmin=0 / qpmax=69 / qpstep=4 / cplxblur=20.0 / qblur=0.5 / vbv_maxrate=14000 / vbv_bufsize=14000 / nal_hrd=none / filler=0 / ip_ratio=1.40 / aq=1:1.00
Language : English
Default : Yes
Forced : No
Audio
ID : 2
Format : AC-3
Format/Info : Audio Coding 3
Mode extension : CM (complete main)
Codec ID : A_AC3
Duration : 2h 57mn
Bit rate mode : Constant
Bit rate : 384 Kbps
Channel(s) : 6 channels
Channel positions : Front: L C R, Side: L R, LFE
Sampling rate : 48.0 KHz
Bit depth : 16 bits
Compression mode : Lossy
Stream size : 489 MiB (12%)
Title : Дубляж
Language : Russian
Default : Yes
Forced : No
Text #1
ID : 3
Format : UTF-8
Codec ID : S_TEXT/UTF8
Codec ID/Info : UTF-8 Plain Text
Title : Форсированные
Language : Russian
Default : Yes
Forced : No
Text #2
ID : 4
Format : UTF-8
Codec ID : S_TEXT/UTF8
Codec ID/Info : UTF-8 Plain Text
Title : Полные
Language : Russian
Default : No
Forced : No
Text #3
ID : 5
Format : UTF-8
Codec ID : S_TEXT/UTF8
Codec ID/Info : UTF-8 Plain Text
Title : Полные
Language : English
Default : No
Forced : No
Menu
00:00:00.000 : en:Chapter 1
00:07:25.528 : en:Chapter 2
00:16:24.441 : en:Chapter 3
00:22:00.694 : en:Chapter 4
00:34:16.888 : en:Chapter 5
00:39:49.678 : en:Chapter 6
00:56:04.986 : en:Chapter 7
01:00:01.264 : en:Chapter 8
01:07:28.043 : en:Chapter 9
01:11:51.932 : en:Chapter 10
01:19:01.528 : en:Chapter 11
01:33:03.202 : en:Chapter 12
01:43:44.718 : en:Chapter 13
01:53:55.453 : en:Chapter 14
01:58:58.464 : en:Chapter 15
02:17:15.477 : en:Chapter 16
02:24:18.900 : en:Chapter 17
02:28:49.795 : en:Chapter 18
02:34:12.409 : en:Chapter 19
02:36:32.091 : en:Chapter 20
02:46:53.878 : en:Chapter 21
02:50:43.066 : en:Chapter 22

[Цитировать]
DIMMM52

респект, кин зачётный Овации
 
Показать сообщения:    

Текущее время: 23-Май 10:03

Часовой пояс: UTC + 3


Вы не можете начинать темы
Вы не можете отвечать на сообщения
Вы не можете редактировать свои сообщения
Вы не можете удалять свои сообщения
Вы не можете голосовать в опросах
Вы не можете прикреплять файлы к сообщениям
Вы не можете скачивать файлы