Leah Gotti-Wet Wild And Hot (2017) Full HD 1080p | 60 fps Feeling Every Drop (2018) Ultra HD | 60 fps Club VXN (2018) Full HD 1080p | 60 fps A Rose, A Kiss, and A Bang! (2017) Full HD 1080p | 60 fps Sheri Vi Tantalizes Nikolas With Her Oral Skills (2015) HD 1080p | 60 fps HOT BLACK GIRLS CREAMPIED(2017) Full HD 1080p | 60 fps Three students learn to fuck together (2017) Full HD 1080p | 60 fps BIG ASS CHICKS IN ACTION (2017) Full HD 1080p | 60 fps
  1. Стаж:
    2 года 1 месяц
    Сообщений:
    620
    Пол:
    Мужской
    Информация
    Название: HOT BLACK GIRLS CREAMPIED
    Год выхода: 2017
    Жанр: Cumshot Threesome Ebony Brunette HD Porn 1080p Big Ass Creampie Interracial Pornstar
    В ролях: Jenna J. Foxx
    --Сюжет:
    Big Ass Ebony Hd Sex Hq Porn Hot Black Girls Creampied Brunette Cumshot Creampie Interracial Threesome
    Страна: США
    Продолжительность: 00:34:33

    Файл
    Кодек: MPEG4/ISO/AVC High@L4.1
    Формат: MP4
    Качество: Full HD 1080p | 60 fps
    Видео: 1920 x 1080 (1.778) | 58.000 fps | 5 Мбит/сек
    Аудио: AAC | 2.0 | 48 kHz |192 Кбит/сек | 16 bit | ENG |

    MedifInfo

    Видео
    Идентификатор : 1
    Формат : AVC
    Формат/Информация : Advanced Video Codec
    Профиль формата : High@L4.1
    Параметр CABAC формата : Да
    Параметр ReFrames формата : 4 кадра
    Идентификатор кодека : avc1
    Идентификатор кодека/Информация : Advanced Video Coding
    Продолжительность : 34 м. 33 с.
    Битрейт : 5000 Кбит/сек
    Ширина : 1920 пикселей
    Высота : 1080 пикселей
    Соотношение сторон : 16:9
    Режим частоты кадров : Постоянный
    Частота кадров : 58,000 кадров/сек
    Цветовое пространство : YUV
    Субдискретизация насыщенности : 4:2:0
    Битовая глубина : 8 бит
    Тип развёртки : Прогрессивная
    Бит/(Пиксели*Кадры) : 0.042
    Размер потока : 1,21 Гбайт (96%)
    Библиотека кодирования : x264 core 152 r19 ba24899
    Настройки программы : cabac=1 / ref=4 / deblock=1:-1:-1 / analyse=0x3:0x113 / me=hex / subme=8 / psy=1 / psy_rd=1.00:0.15 / mixed_ref=1 / me_range=16 / chroma_me=1 / trellis=2 / 8x8dct=1 / cqm=0 / deadzone=21,11 / fast_pskip=1 / chroma_qp_offset=-3 / threads=4 / lookahead_threads=1 / sliced_threads=0 / nr=0 / decimate=1 / interlaced=0 / bluray_compat=0 / constrained_intra=0 / bframes=3 / b_pyramid=2 / b_adapt=1 / b_bias=0 / direct=3 / weightb=1 / open_gop=0 / weightp=2 / keyint=250 / keyint_min=25 / scenecut=0 / intra_refresh=0 / rc_lookahead=50 / rc=abr / mbtree=1 / bitrate=5000 / ratetol=1.0 / qcomp=0.60 / qpmin=0 / qpmax=69 / qpstep=4 / ip_ratio=1.40 / aq=1:1.00
    Аудио
    Идентификатор : 2
    Формат : AAC
    Формат/Информация : Advanced Audio Codec
    Профиль формата : LC
    Идентификатор кодека : 40
    Продолжительность : 34 м. 33 с.
    Duration_LastFrame : -14 мс.
    Вид битрейта : Постоянный
    Битрейт : 192 Кбит/сек
    Каналы : 2 канала
    Расположение каналов : Front: L R
    Частота : 44,1 КГц
    Частота кадров : 43,066 кадра/сек (1024 spf)
    Метод сжатия : С потерями
    Размер потока : 47,9 Мбайт (4%)
    Default : Да
    Alternate group : 1

    Скрин

  2. Стаж:
    1 год 11 месяцев
    Сообщений:
    24
    Пол:
    Не указан
    merci Овации
    22-Сен-2017 20:50 (спустя 21 час)
  3. Стаж:
    2 года 8 месяцев
    Сообщений:
    27
    Пол:
    Мужской
    Спасибо,в коллекцию! Привет
    24-Сен-2017 15:10 (спустя 1 день 18 часов)


Вы не можете начинать темы
Вы не можете отвечать на сообщения
Вы не можете редактировать свои сообщения
Вы не можете удалять свои сообщения
Вы не можете голосовать в опросах
Вы не можете прикреплять файлы к сообщениям
Вы не можете скачивать файлы