1. Longevity:
    4 years 10 months
    Posts:
    336
    Gender:
    Male
    Заказать фильмы, клипы или любое другое видео в качестве 60fps может каждый!!!
    Стоимость одного видео 50руб. !!!
    Пишите Талямба в личку, всё обсудите...
    Хороший, плохой, коп / Copshop (2021) WEB-DL 1080p | 60 fps Информация
    Название: Хороший, плохой, коп
    Оригинальное название: Copshop
    Год выхода: 2021
    Жанр: Боевик, триллер, криминал
    Режиссер: Джо Карнахан
    В ролях: Джерард Батлер, Фрэнк Грилло, Алексис Лодер, Тоби Хасс, Райан О’Нан, Тейт Флетчер, Хосе Пабло Кантильо, Джанни Калькетти, Кит Джардин, Каиви Лайман
    Страна: США
    Продолжительность: 1 ч. 47 м. 40 с.
    ------ Сюжет:
    Небольшой городок в Неваде. Во время разгона свадебной драки молодая полицейская Валери Янг получает по лицу от заезжего хлыща. Только его определяют за решётку в местный полицейский участок, как в дежурных копов на пустынной дороге чуть не врезается на машине какой-то пьянчуга. Его сажают в другую камеру, и он оказался тут неспроста. Скоро прежде тихий полицейский участок станет местом жестокого противостояния, а Валери придётся принимать непростые решения. ------ Файл
    Кодек: V_MPEG4/ISO/AVC
    Формат: MKV
    Качество: WEB-DL 1080p | 60 fps
    Видео: 1920 x 800 (2.400) | 59.940 fps | 25 Мбит/сек
    Аудио 1: AC3, 48.0 kHz, 6 ch, 384 kb/s | DUB | iTunes | RUS |
    Аудио 2: AC3, 48.0 kHz, 6 ch, 448 kb/s | MVO | HDRezka Studio (Censored) | RUS |
    Аудио 3: AC3, 48.0 kHz, 6 ch, 448 kb/s | MVO | HDRezka Studio (Uncensored) | RUS |
    Аудио 4: AC3, 48.0 kHz, 6 ch, 448 kb/s | DVO | Pazl Voice (Uncensored) | RUS |
    Аудио 5: AC3, 48.0 kHz, 6 ch, 384 kb/s | MVO | HDRezka Studio / DniproFilm | UKR |
    Аудио 6: E-AC3, 48.0 kHz, 6 ch, 640 kb/s | Оригинал | ENG |

    MedifInfo

    Общее
    Уникальный идентификатор : 197576780531672073690896840627574311867 (0x94A3E75F0DCB9E6C9F78471911DC8BBB)
    Полное имя : D:\Movie\Хороший, плохой, коп (2021).mkv
    Формат : Matroska
    Версия формата : Version 2
    Размер файла : 20,8 Гбайт
    Продолжительность : 1 ч. 47 м.
    Общий поток : 27,7 Мбит/сек
    Название фильма : Хороший, плохой, коп
    Дата кодирования : UTC 2021-11-20 20:34:38
    Программа кодирования : mkvmerge v5.8.0 ('No Sleep / Pillow') built on Sep 2 2012 15:37:04
    Библиотека кодирования : libebml v1.2.3 + libmatroska v1.3.0
    Attachments : Poster.jpg
    Видео
    Идентификатор : 1
    Формат : AVC
    Формат/Информация : Advanced Video Codec
    Профиль формата : High@L4.1
    Параметр CABAC формата : Да
    Параметр ReFrames формата : 5 кадров
    Режим смешивания : Header stripping
    Идентификатор кодека : V_MPEG4/ISO/AVC
    Продолжительность : 1 ч. 47 м.
    Битрейт : 25,0 Мбит/сек
    Ширина : 1920 пикселей
    Высота : 800 пикселей
    Соотношение сторон : 2,40:1
    Режим частоты кадров : Постоянный
    Частота кадров : 59,940 (60000/1001) кадров/сек
    Цветовое пространство : YUV
    Субдискретизация насыщенности : 4:2:0
    Битовая глубина : 8 бит
    Тип развёртки : Прогрессивная
    Бит/(Пиксели*Кадры) : 0.272
    Размер потока : 18,3 Гбайт (88%)
    Библиотека кодирования : x264 core 146 r2538 121396c
    Настройки программы : cabac=1 / ref=5 / deblock=1:0:0 / analyse=0x3:0x113 / me=umh / subme=8 / psy=1 / psy_rd=1.00:0.25 / mixed_ref=1 / me_range=32 / chroma_me=1 / trellis=1 / 8x8dct=1 / cqm=0 / deadzone=6,6 / fast_pskip=1 / chroma_qp_offset=-4 / threads=12 / lookahead_threads=3 / sliced_threads=0 / nr=0 / decimate=0 / interlaced=0 / bluray_compat=0 / constrained_intra=0 / bframes=3 / b_pyramid=2 / b_adapt=2 / b_bias=0 / direct=3 / weightb=1 / open_gop=0 / weightp=2 / keyint=600 / keyint_min=60 / scenecut=40 / intra_refresh=0 / rc_lookahead=50 / rc=2pass / mbtree=1 / bitrate=25000 / ratetol=1.0 / qcomp=0.80 / qpmin=0 / qpmax=69 / qpstep=4 / cplxblur=20.0 / qblur=0.5 / vbv_maxrate=50000 / vbv_bufsize=50000 / nal_hrd=none / filler=0 / ip_ratio=1.10 / aq=1:0.50
    Язык : English
    Default : Да
    Forced : Нет
    Аудио #1
    Идентификатор : 2
    Формат : AC-3
    Формат/Информация : Audio Coding 3
    Расширение режима : CM (complete main)
    Параметр Endianness формата : Big
    Режим смешивания : Header stripping
    Идентификатор кодека : A_AC3
    Продолжительность : 1 ч. 47 м.
    Вид битрейта : Постоянный
    Битрейт : 384 Кбит/сек
    Каналы : 6 каналов
    Расположение каналов : Front: L C R, Side: L R, LFE
    Частота : 48,0 КГц
    Частота кадров : 31,250 кадров/сек (1536 spf)
    Битовая глубина : 16 бит
    Метод сжатия : С потерями
    Размер потока : 296 Мбайт (1%)
    Заголовок : DUB (iTunes)
    Язык : Russian
    Default : Да
    Forced : Нет
    Statistics Tags Issue : mkvmerge v8.3.0 ('Over the Horizon') 64bit 2021-11-19 15:21:13 / mkvmerge v5.8.0 ('No Sleep / Pillow') built on Sep 2 2012 15:37:04 2021-11-20 20:34:38
    FromStats_BitRate : 384000
    FromStats_Duration : 01:47:40.256000000
    FromStats_FrameCount : 201883
    FromStats_StreamSize : 310092288
    Аудио #2
    Идентификатор : 3
    Формат : AC-3
    Формат/Информация : Audio Coding 3
    Расширение режима : CM (complete main)
    Параметр Endianness формата : Big
    Режим смешивания : Header stripping
    Идентификатор кодека : A_AC3
    Продолжительность : 1 ч. 47 м.
    Вид битрейта : Постоянный
    Битрейт : 448 Кбит/сек
    Каналы : 6 каналов
    Расположение каналов : Front: L C R, Side: L R, LFE
    Частота : 48,0 КГц
    Частота кадров : 31,250 кадров/сек (1536 spf)
    Битовая глубина : 16 бит
    Метод сжатия : С потерями
    Размер потока : 345 Мбайт (2%)
    Заголовок : MVO (HDRezka Studio) [Censored]
    Язык : Russian
    Default : Нет
    Forced : Нет
    Statistics Tags Issue : mkvmerge v8.3.0 ('Over the Horizon') 64bit 2021-11-19 15:21:13 / mkvmerge v5.8.0 ('No Sleep / Pillow') built on Sep 2 2012 15:37:04 2021-11-20 20:34:38
    FromStats_BitRate : 448000
    FromStats_Duration : 01:47:39.456000000
    FromStats_FrameCount : 201858
    FromStats_StreamSize : 361729536
    Аудио #3
    Идентификатор : 4
    Формат : AC-3
    Формат/Информация : Audio Coding 3
    Расширение режима : CM (complete main)
    Параметр Endianness формата : Big
    Режим смешивания : Header stripping
    Идентификатор кодека : A_AC3
    Продолжительность : 1 ч. 47 м.
    Вид битрейта : Постоянный
    Битрейт : 448 Кбит/сек
    Каналы : 6 каналов
    Расположение каналов : Front: L C R, Side: L R, LFE
    Частота : 48,0 КГц
    Частота кадров : 31,250 кадров/сек (1536 spf)
    Битовая глубина : 16 бит
    Метод сжатия : С потерями
    Размер потока : 345 Мбайт (2%)
    Заголовок : MVO (HDRezka Studio) [Uncensored]
    Язык : Russian
    Default : Нет
    Forced : Нет
    Statistics Tags Issue : mkvmerge v8.3.0 ('Over the Horizon') 64bit 2021-11-19 15:21:13 / mkvmerge v5.8.0 ('No Sleep / Pillow') built on Sep 2 2012 15:37:04 2021-11-20 20:34:38
    FromStats_BitRate : 448000
    FromStats_Duration : 01:47:39.456000000
    FromStats_FrameCount : 201858
    FromStats_StreamSize : 361729536
    Аудио #4
    Идентификатор : 5
    Формат : AC-3
    Формат/Информация : Audio Coding 3
    Расширение режима : CM (complete main)
    Параметр Endianness формата : Big
    Режим смешивания : Header stripping
    Идентификатор кодека : A_AC3
    Продолжительность : 1 ч. 47 м.
    Вид битрейта : Постоянный
    Битрейт : 448 Кбит/сек
    Каналы : 6 каналов
    Расположение каналов : Front: L C R, Side: L R, LFE
    Частота : 48,0 КГц
    Частота кадров : 31,250 кадров/сек (1536 spf)
    Битовая глубина : 16 бит
    Метод сжатия : С потерями
    Размер потока : 345 Мбайт (2%)
    Заголовок : DVO (Pazl Voice) [Uncensored]
    Язык : Russian
    Default : Нет
    Forced : Нет
    Statistics Tags Issue : mkvmerge v8.3.0 ('Over the Horizon') 64bit 2021-11-19 15:21:13 / mkvmerge v5.8.0 ('No Sleep / Pillow') built on Sep 2 2012 15:37:04 2021-11-20 20:34:38
    FromStats_BitRate : 448000
    FromStats_Duration : 01:47:40.352000000
    FromStats_FrameCount : 201886
    FromStats_StreamSize : 361779712
    Аудио #5
    Идентификатор : 6
    Формат : AC-3
    Формат/Информация : Audio Coding 3
    Расширение режима : CM (complete main)
    Параметр Endianness формата : Big
    Режим смешивания : Header stripping
    Идентификатор кодека : A_AC3
    Продолжительность : 1 ч. 47 м.
    Вид битрейта : Постоянный
    Битрейт : 384 Кбит/сек
    Каналы : 6 каналов
    Расположение каналов : Front: L C R, Side: L R, LFE
    Частота : 48,0 КГц
    Частота кадров : 31,250 кадров/сек (1536 spf)
    Битовая глубина : 16 бит
    Метод сжатия : С потерями
    Размер потока : 296 Мбайт (1%)
    Заголовок : MVO (HDRezka/DniproFilm)
    Язык : Ukrainian
    Default : Нет
    Forced : Нет
    Statistics Tags Issue : mkvmerge v8.3.0 ('Over the Horizon') 64bit 2021-11-19 15:21:13 / mkvmerge v5.8.0 ('No Sleep / Pillow') built on Sep 2 2012 15:37:04 2021-11-20 20:34:38
    FromStats_BitRate : 384000
    FromStats_Duration : 01:47:40.352000000
    FromStats_FrameCount : 201886
    FromStats_StreamSize : 310096896
    Аудио #6
    Идентификатор : 7
    Формат : E-AC-3
    Формат/Информация : Enhanced Audio Coding 3
    Параметр Endianness формата : Big
    Режим смешивания : Header stripping
    Идентификатор кодека : A_EAC3
    Продолжительность : 1 ч. 47 м.
    Вид битрейта : Постоянный
    Битрейт : 640 Кбит/сек
    Каналы : 6 каналов
    Расположение каналов : Front: L C R, Side: L R, LFE
    Частота : 48,0 КГц
    Частота кадров : 187,500 кадров/сек (256 spf)
    Метод сжатия : С потерями
    Размер потока : 493 Мбайт (2%)
    Заголовок : Original
    Язык : English
    Default : Нет
    Forced : Нет
    Statistics Tags Issue : mkvmerge v8.3.0 ('Over the Horizon') 64bit 2021-11-19 15:21:13 / mkvmerge v5.8.0 ('No Sleep / Pillow') built on Sep 2 2012 15:37:04 2021-11-20 20:34:38
    FromStats_BitRate : 640000
    FromStats_Duration : 01:47:40.352000000
    FromStats_FrameCount : 201886
    FromStats_StreamSize : 516828160
    Текст #1
    Идентификатор : 8
    Формат : UTF-8
    Идентификатор кодека : S_TEXT/UTF8
    Идентификатор кодека/Информация : UTF-8 Plain Text
    Заголовок : Forced
    Язык : Russian
    Default : Да
    Forced : Нет
    Statistics Tags Issue : mkvmerge v8.3.0 ('Over the Horizon') 64bit 2021-11-19 15:21:13 / mkvmerge v5.8.0 ('No Sleep / Pillow') built on Sep 2 2012 15:37:04 2021-11-20 20:34:38
    FromStats_BitRate : 3
    FromStats_Duration : 01:40:57.400000000
    FromStats_FrameCount : 57
    FromStats_StreamSize : 2773
    Текст #2
    Идентификатор : 9
    Формат : UTF-8
    Идентификатор кодека : S_TEXT/UTF8
    Идентификатор кодека/Информация : UTF-8 Plain Text
    Заголовок : Full (MENINSUB)
    Язык : Russian
    Default : Нет
    Forced : Нет
    Statistics Tags Issue : mkvmerge v8.3.0 ('Over the Horizon') 64bit 2021-11-19 15:21:13 / mkvmerge v5.8.0 ('No Sleep / Pillow') built on Sep 2 2012 15:37:04 2021-11-20 20:34:38
    FromStats_BitRate : 90
    FromStats_Duration : 01:40:33.017000000
    FromStats_FrameCount : 1656
    FromStats_StreamSize : 68503
    Текст #3
    Идентификатор : 10
    Формат : UTF-8
    Идентификатор кодека : S_TEXT/UTF8
    Идентификатор кодека/Информация : UTF-8 Plain Text
    Заголовок : Forced
    Язык : Ukrainian
    Default : Нет
    Forced : Нет
    Statistics Tags Issue : mkvmerge v8.3.0 ('Over the Horizon') 64bit 2021-11-19 15:21:13 / mkvmerge v5.8.0 ('No Sleep / Pillow') built on Sep 2 2012 15:37:04 2021-11-20 20:34:38
    FromStats_BitRate : 1
    FromStats_Duration : 01:18:52.235000000
    FromStats_FrameCount : 26
    FromStats_StreamSize : 1108
    Текст #4
    Идентификатор : 11
    Формат : UTF-8
    Идентификатор кодека : S_TEXT/UTF8
    Идентификатор кодека/Информация : UTF-8 Plain Text
    Заголовок : Full
    Язык : English
    Default : Нет
    Forced : Нет
    Statistics Tags Issue : mkvmerge v8.3.0 ('Over the Horizon') 64bit 2021-11-19 15:21:13 / mkvmerge v5.8.0 ('No Sleep / Pillow') built on Sep 2 2012 15:37:04 2021-11-20 20:34:38
    FromStats_BitRate : 58
    FromStats_Duration : 01:41:19.639000000
    FromStats_FrameCount : 1651
    FromStats_StreamSize : 44487
    Текст #5
    Идентификатор : 12
    Формат : UTF-8
    Идентификатор кодека : S_TEXT/UTF8
    Идентификатор кодека/Информация : UTF-8 Plain Text
    Заголовок : SDH
    Язык : English
    Default : Нет
    Forced : Нет
    Statistics Tags Issue : mkvmerge v8.3.0 ('Over the Horizon') 64bit 2021-11-19 15:21:13 / mkvmerge v5.8.0 ('No Sleep / Pillow') built on Sep 2 2012 15:37:04 2021-11-20 20:34:38
    FromStats_BitRate : 71
    FromStats_Duration : 01:46:33.387000000
    FromStats_FrameCount : 2178
    FromStats_StreamSize : 56841
    Меню
    00:00:00.000 : en:Chapter 01
    00:08:23.128 : en:Chapter 02
    00:19:18.366 : en:Chapter 03
    00:27:46.166 : en:Chapter 04
    00:37:11.648 : en:Chapter 05
    00:46:05.557 : en:Chapter 06
    00:54:49.539 : en:Chapter 07
    01:05:42.400 : en:Chapter 08
    01:13:58.730 : en:Chapter 09
    01:26:08.001 : en:Chapter 10
    01:43:03.600 : en:Chapter 11

    Release was prepared by 60-fps.org



You cannot post new topics in this forum
You cannot reply to topics in this forum
You cannot edit your posts in this forum
You cannot delete your posts in this forum
You cannot vote in polls in this forum
You cannot attach files in this forum
You cannot download files in this forum