[Цитировать]
mimok

Хороший динозавр / The Good Dinosaur (2015) BDRip 720p | 60fps«Tiny but tough»- Информация о фильме
Название: Хороший динозавр
Оригинальное название: The Good Dinosaur
Год выхода: 2015
Жанр: Мультфильм, фэнтези, комедия, приключения, семейный
Режиссер: Питер Сон
Продюсер: Денис Рим, Мэри Элис Драмм, Джон Лассетер
В ролях: Джеффри Райт, Фрэнсис МакДорманд, Малиа Нипай-Падилья, Райан Типл, Джек МакГроу, Маркус Скрибнер, Рэймонд Очоа, Джек Брайт, Питер Сон, Стив Зан
Описание фильма:
По сюжету динозавры не вымерли, а эволюционировали в разумных существ и живут и здравствуют на Земле. А вот люди остались на довольно примитивной стадии развития. Фильм расскажет историю дружбы динозавра и маленького мальчика.
Страна: США
Студия: Pixar Animation Studios, Walt Disney Pictures
Продолжительность: 01:33:50
Перевод: Профессиональный (полное дублирование) Line
Субтитры:Отсутствуют

Дата мировой премьеры:10 ноября 2015
Дата российской премьеры:26 ноября 2015, «WDSSPR»
Дата выхода DVD/Blu-Ray релиза:22 марта 2016, «Уолт Дисней Компани СНГ»
Файл
Формат: MKV
Кодек: MPEG-4 AVC/H.264
Качество: BDRip 720p
Видео: ~ 10.1 Мбит/сек, 1280 x 536, 59.940 кадров/сек
Аудио: AC3 2.0, 48.0 KHz, 192 Кбит/сек - Русский

MediaInfo

Общее
Уникальный идентификатор : 190684603490729716821783866237612815356 (0x8F7484CEBE1501A2BDC38663688973FC)
Полное имя : E:\Торренты\The Good Dinosaur 60fps.mkv
Формат : Matroska
Версия формата : Version 2
Размер файла : 6,89 Гбайт
Продолжительность : 1 ч. 33 м.
Общий поток : 10,5 Мбит/сек
Дата кодирования : UTC 2016-02-17 11:37:25
Программа кодирования : mkvmerge v6.1.0 ('Old Devil') built on Mar 4 2013 09:10:42
Библиотека кодирования : libebml v1.3.0 + libmatroska v1.4.0
Видео
Идентификатор : 1
Формат : AVC
Формат/Информация : Advanced Video Codec
Профиль формата : High@L4.1
Параметр CABAC формата : Да
Параметр ReFrames формата : 6 кадров
Идентификатор кодека : V_MPEG4/ISO/AVC
Продолжительность : 1 ч. 33 м.
Битрейт : 10,1 Мбит/сек
Ширина : 1280 пикселей
Высота : 536 пикселей
Соотношение сторон : 2,40:1
Режим частоты кадров : Постоянный
Частота кадров : 59,940 (59940/1000) кадров/сек
Цветовое пространство : YUV
Субдискретизация насыщенности : 4:2:0
Битовая глубина : 8 бит
Тип развёртки : Прогрессивная
Бит/(Пиксели*Кадры) : 0.246
Размер потока : 6,63 Гбайт (96%)
Библиотека кодирования : x264 core 130 r2273 b3065e6
Настройки программы : cabac=1 / ref=6 / deblock=1:0:0 / analyse=0x3:0x133 / me=umh / subme=8 / psy=1 / psy_rd=1.00:0.15 / mixed_ref=1 / me_range=20 / chroma_me=1 / trellis=2 / 8x8dct=1 / cqm=0 / deadzone=21,11 / fast_pskip=0 / chroma_qp_offset=-3 / threads=6 / lookahead_threads=2 / sliced_threads=0 / nr=0 / decimate=0 / interlaced=0 / bluray_compat=0 / constrained_intra=0 / bframes=8 / b_pyramid=2 / b_adapt=2 / b_bias=0 / direct=1 / weightb=1 / open_gop=0 / weightp=2 / keyint=250 / keyint_min=25 / scenecut=40 / intra_refresh=0 / rc=crf / mbtree=0 / crf=17.0 / qcomp=0.63 / qpmin=10 / qpmax=51 / qpstep=4 / ip_ratio=1.40 / pb_ratio=1.30 / aq=2:1.20
Default : Да
Forced : Нет
Аудио
Идентификатор : 2
Формат : AC-3
Формат/Информация : Audio Coding 3
Расширение режима : CM (complete main)
Параметр Endianness формата : Big
Идентификатор кодека : A_AC3
Продолжительность : 1 ч. 33 м.
Вид битрейта : Постоянный
Битрейт : 192 Кбит/сек
Каналы : 2 канала
Расположение каналов : Front: L R
Частота : 48,0 КГц
Частота кадров : 31,250 кадров/сек (1536 spf)
Метод сжатия : С потерями
Размер потока : 129 Мбайт (2%)
Default : Да
Forced : Нет
Скриншоты:

Релиз подготовлен 60 - fps

 
Показать сообщения:    

Текущее время: 05-Дек 05:22

Часовой пояс: UTC + 3


Вы не можете начинать темы
Вы не можете отвечать на сообщения
Вы не можете редактировать свои сообщения
Вы не можете удалять свои сообщения
Вы не можете голосовать в опросах
Вы не можете прикреплять файлы к сообщениям
Вы не можете скачивать файлы