[Цитировать]
MeZZAPT

«Tiny but tough»- Информация о фильме
Название: Хороший динозавр
Оригинальное название: The Good Dinosaur
Год выхода: 2015
Жанр: мультфильм, фэнтези, комедия, приключения, семейный
Режиссер: Питер Сон
Сценарий: Боб Питерсон, Мэг ЛеФов, Питер Сон
Продюсер: Денис Рим, Мэри Элис Драмм, Джон Лассетер
Роли озвучивали: Джеффри Райт, Фрэнсис МакДорманд, Малиа Нипай-Падилья, Райан Типл, Джек МакГроу, Маркус Скрибнер, Рэймонд Очоа, Джек Брайт, Питер Сон, Стив Зан, Максим Сергеев, Регина Щукина, Александра Петрова, Дмитрий Головин, Сергей Маркеев
--О фильме:
По сюжету динозавры не вымерли, а эволюционировали в разумных существ и живут и здравствуют на Земле. А вот люди остались на довольно примитивной стадии развития. Фильм расскажет историю дружбы динозавра и маленького мальчика.- -- Страна: США
Продолжительность: 01:33:53
-- Файл
Кодек: MPEG4/ISO/AVC H.264
Формат: MKV
Качество: BDRip 1080p | 60fps
Видео: 1920x800 | 59.940 fps | ~4.0 Мбит/сек
Аудио: AC3 | stereo | 48 kHz | 192kbps | 16 bit | Дубляж Чистый звук |

MedifInfo

Video
ID : 1
Format : Matroska
Format version : Version 4 / Version 2
File size : 2.74 GiB
Duration : 1h 33mn
Overall bit rate : 4 194 Kbps
Encoded date : UTC 2016-02-12 05:35:19
Writing application : mkvmerge v7.0.0 ('Where We Going') 64bit built on Jun 9 2014 15:16:27
Writing library : libebml v1.3.0 + libmatroska v1.4.1
Cover : Yes
Attachments : Cover.png
Video
ID : 1
Format : AVC
Format/Info : Advanced Video Codec
Format profile : High@L4.1
Format settings, CABAC : Yes
Format settings, ReFrames : 4 frames
Codec ID : V_MPEG4/ISO/AVC
Duration : 1h 33mn
Bit rate : 4 000 Kbps
Width : 1 920 pixels
Height : 800 pixels
Display aspect ratio : 2.40:1
Frame rate mode : Constant
Frame rate : 59.940 (59940/1000) fps
Color space : YUV
Chroma subsampling : 4:2:0
Bit depth : 8 bits
Scan type : Progressive
Bits/(Pixel*Frame) : 0.043
Stream size : 2.62 GiB (95%)
Title : By MeZZAPT
Writing library : x264 core 146 r2538 121396c
Encoding settings : cabac=1 / ref=3 / deblock=1:0:0 / analyse=0x3:0x113 / me=umh / subme=9 / psy=1 / psy_rd=1.00:0.10 / mixed_ref=1 / me_range=32 / chroma_me=1 / trellis=2 / 8x8dct=1 / cqm=0 / deadzone=21,11 / fast_pskip=0 / chroma_qp_offset=-3 / threads=6 / lookahead_threads=1 / sliced_threads=0 / nr=0 / decimate=1 / interlaced=0 / bluray_compat=0 / constrained_intra=0 / bframes=16 / b_pyramid=2 / b_adapt=2 / b_bias=0 / direct=3 / weightb=1 / open_gop=0 / weightp=2 / keyint=250 / keyint_min=25 / scenecut=40 / intra_refresh=0 / rc_lookahead=40 / rc=2pass / mbtree=0 / bitrate=4000 / ratetol=1.0 / qcomp=0.60 / qpmin=0 / qpmax=69 / qpstep=4 / cplxblur=20.0 / qblur=0.5 / vbv_maxrate=14000 / vbv_bufsize=14000 / nal_hrd=none / filler=0 / ip_ratio=1.40 / pb_ratio=1.30 / aq=1:1.00
Language : English
Default : Yes
Forced : No
Audio
ID : 2
Format : AC-3
Format/Info : Audio Coding 3
Mode extension : CM (complete main)
Format settings, Endianness : Big
Codec ID : A_AC3
Duration : 1h 33mn
Bit rate mode : Constant
Bit rate : 192 Kbps
Channel(s) : 2 channels
Channel positions : Front: L R
Sampling rate : 48.0 KHz
Frame rate : 31.250 fps (1536 spf)
Compression mode : Lossy
Stream size : 128 MiB (5%)
Title : By MeZZAPT
Default : Yes
Forced : No


Последний раз редактировалось: MeZZAPT (2016-02-13 10:10), всего редактировалось 2 раз(а)

[Цитировать]
RogerJunior

Классный добрый мультик! дочь смотрела,сказала что посмотрит еще 100 раз)))) спасибо за качество и 60 fps)))! Улыбаюсь Привет

[Цитировать]
lukasrubiolo12

thanks!

[Цитировать]
Лёва

Добрый день с праздником !!! Для качества 1920х800 60fps размер файла просто фантастика, какую прогу использовали поделитесь плиз !

[Цитировать]
MeZZAPT

5297Добрый день с праздником !!! Для качества 1920х800 60fps размер файла просто фантастика, какую прогу использовали поделитесь плиз !
XviD4PSP,mkvmerge Привет
 
Показать сообщения:    

Текущее время: 10-Дек 19:37

Часовой пояс: UTC + 3


Вы не можете начинать темы
Вы не можете отвечать на сообщения
Вы не можете редактировать свои сообщения
Вы не можете удалять свои сообщения
Вы не можете голосовать в опросах
Вы не можете прикреплять файлы к сообщениям
Вы не можете скачивать файлы