Топ Топиков за 24 часа
 
Джон Уик 2 / John Wick: Chapter Two (2017) BDRip 720p | 60 fps Форсаж 8 / The Fate of the Furious (2017) BDRip 1080p | 60 fps Стражи Галактики. Часть 2 / Guardians of the Galaxy Vol. 2 (2017) BDRip 1080p | 60 fps Призрак в доспехах / Ghost in the Shell (2017) BDRip 1080p | 60 fps Великая стена / The Great Wall (2016) BDRip 1080p | 60 fps Форсаж 8 / The Fate of the Furious (2017) BDRip 720p | 60 fps Варкрафт / Warcraft (2016) BDRip 1080p | 60 fps Конг: Остров черепа / Kong: Skull Island (2017) BDRip 1080p | 60 fps Доктор Стрэндж / Doctor Strange (2016) BDRip 1080p | 60 fps Чужой: Завет / Alien: Covenant (2016) BDRip 720p | 60 fps Пираты Карибского моря: Мертвецы не рассказывают сказки / Pirates of the Caribbean: Dead Men Tell No Tales (2017) BDRip 1080p | 60 fps Меч короля Артура / King Arthur: Legend of the Sword (2017) BDRip 1080p | 60 fps
  1. Стаж:
    3 года 2 месяца
    Сообщений:
    2116
    Пол:
    Мужской
     
    Хорошее время / Good Time (2017) BDRip 720p | 60 fps Информация
    Название: Хорошее время
    Оригинальное название: Good Time
    Год выхода: 2017
    Жанр: Триллер, драма, криминал
    Режиссер: Бен Сэфди, Джошуа Сэфди
    Сценарий: Рональд Бронштейн, Джошуа Сэфди
    Продюсер: Sebastian Bear-McClard, Оскар Бойсон, Терри Дугас
    В ролях: Роберт Паттинсон, Бен Сэфди, Taliah Webster, Дженнифер Джейсон Ли, Баркхад Абди, Рон Браунштейн

    Сюжет:
    Отчаявшись найти работу и достать деньги на оплату счетов, Конни планирует ограбление банка. На налет он берёт своего родного брата Ника, страдающего умственными отклонениями. Ограбление проходит успешно, но у братьев в руках взрывается пакет с краской, и Ник попадает в руки полиции. Чувствуя вину за брата, а также понимая, как тяжело Ник будет переносить каждый день без помощи близкого человека, Конни решает, во что бы то ни стало, вытащить брата из рук полиции. В течение одной ночи, полной адреналина, Конни предпринимает отчаянные попытки пробраться к Нику и освободить его.

    Страна: США
    Продолжительность: 01:41:04

    Файл
    Кодек: MPEG4|ISO|AVC|H.264|
    Формат: MKV
    Качество: BDRip 720p | 60 fps
    Видео: 1280 x 534 (2.397) | 59.940 fps | 10.0 Мбит/сек
    Аудио 01: AC3 | 5.1 | 48 kHz | 384 kbps | 16 bit | Профессиональный многоголосый - iTunes |
    Аудио 02: AC3 | 5.1 | 48 kHz | 448 kbps | 16 bit | English |

    MedifInfo

    Видео
    Идентификатор : 1
    Формат : AVC
    Формат/Информация : Advanced Video Codec
    Профиль формата : High@L4.1
    Параметр CABAC формата : Да
    Параметр ReFrames формата : 3 кадра
    Идентификатор кодека : V_MPEG4/ISO/AVC
    Продолжительность : 1 ч. 41 м.
    Вид битрейта : Переменный
    Битрейт : 9573 Кбит/сек
    Максимальный битрейт : 10000 Кбит/сек
    Ширина : 1280 пикселей
    Высота : 534 пикселя
    Соотношение сторон : 2,40:1
    Режим частоты кадров : Постоянный
    Частота кадров : 60,000 кадров/сек
    Стандарт вещания : PAL
    Цветовое пространство : YUV
    Субдискретизация насыщенности : 4:2:0
    Битовая глубина : 8 бит
    Тип развёртки : Прогрессивная
    Бит/(Пиксели*Кадры) : 0.233
    Размер потока : 6,76 Гбайт (90%)
    Заголовок : www.60-fps.org
    Язык : English
    Default : Да
    Forced : Нет
    Основные цвета : BT.601 NTSC
    Характеристики трансфера : BT.601
    Коэффициенты матрицы : BT.601
    colour_range : Limited
    Аудио #1
    Идентификатор : 2
    Формат : AC-3
    Формат/Информация : Audio Coding 3
    Расширение режима : CM (complete main)
    Параметр Endianness формата : Big
    Идентификатор кодека : A_AC3
    Продолжительность : 1 ч. 41 м.
    Вид битрейта : Постоянный
    Битрейт : 384 Кбит/сек
    Каналы : 6 каналов
    Расположение каналов : Front: L C R, Side: L R, LFE
    Частота : 48,0 КГц
    Битовая глубина : 16 бит
    Метод сжатия : С потерями
    Размер потока : 278 Мбайт (4%)
    Заголовок : Профессиональный многоголосый - iTunes
    Язык : Russian
    Default : Да
    Forced : Нет
    Аудио #2
    Идентификатор : 3
    Формат : AC-3
    Формат/Информация : Audio Coding 3
    Расширение режима : CM (complete main)
    Параметр Endianness формата : Big
    Идентификатор кодека : A_AC3
    Продолжительность : 1 ч. 41 м.
    Вид битрейта : Постоянный
    Битрейт : 448 Кбит/сек
    Каналы : 6 каналов
    Расположение каналов : Front: L C R, Side: L R, LFE
    Частота : 48,0 КГц
    Битовая глубина : 16 бит
    Метод сжатия : С потерями
    Размер потока : 324 Мбайт (4%)
    Заголовок : english
    Язык : English
    Default : Нет
    Forced : Нет
    Меню
    00:00:00.000 : en:Chapter 1
    00:12:33.291 : en:Chapter 2
    00:25:52.500 : en:Chapter 3
    00:36:44.250 : en:Chapter 4
    00:49:38.000 : en:Chapter 5
    01:03:02.166 : en:Chapter 6
    01:15:24.458 : en:Chapter 7
    01:27:26.958 : en:Chapter 8

    Релиз подготовлен 60 - fps



Вы не можете начинать темы
Вы не можете отвечать на сообщения
Вы не можете редактировать свои сообщения
Вы не можете удалять свои сообщения
Вы не можете голосовать в опросах
Вы не можете прикреплять файлы к сообщениям
Вы не можете скачивать файлы