[Цитировать]
Талямба

Информация
Название: POOLMAN MAKES EBONY HONEY GOLD SQUIRT
Год выхода: 2017
Жанр: Hardcore Big Dick Ebony Outdoor Brunette Interracial Squirt
В ролях: Honey Gold
--Сюжет:
Interracial Black Ebony Dogfart Dogfartnetwork Pornstar Hardcore Squirt Squirting Big Cock Outdoor Blowjob Doggy Style High Heels Tattoo Rough Honey Gold Dick Poolman Makes Brunette
Страна: США
Продолжительность: 00:15:57

Файл
Кодек: MPEG4/ISO/AVC High@L4
Формат: MP4
Качество: HD 720p 60 fps
Видео: 1280 x 720 (1.778) | 60.000 fps | 3000 Кбит/сек
Аудио: AAC | 2.0 | 48 kHz | 127 Кбит/сек | 16 bit | ENG |

MedifInfo

Видео
Идентификатор : 1
Формат : AVC
Формат/Информация : Advanced Video Codec
Профиль формата : High@L4
Параметр CABAC формата : Да
Параметр ReFrames формата : 5 кадров
Идентификатор кодека : avc1
Идентификатор кодека/Информация : Advanced Video Coding
Продолжительность : 15 м. 57 с.
Битрейт : 3000 Кбит/сек
Ширина : 1280 пикселей
Высота : 720 пикселей
Соотношение сторон : 16:9
Режим частоты кадров : Постоянный
Частота кадров : 60,000 кадров/сек
Цветовое пространство : YUV
Субдискретизация насыщенности : 4:2:0
Битовая глубина : 8 бит
Тип развёртки : Прогрессивная
Бит/(Пиксели*Кадры) : 0.054
Размер потока : 335 Мбайт (95%)
Библиотека кодирования : x264 core 148 r333 90a61ec
Настройки программы : cabac=1 / ref=5 / deblock=1:-1:-1 / analyse=0x3:0x113 / me=hex / subme=8 / psy=1 / psy_rd=1.00:0.15 / mixed_ref=1 / me_range=16 / chroma_me=1 / trellis=2 / 8x8dct=1 / cqm=0 / deadzone=21,11 / fast_pskip=1 / chroma_qp_offset=-3 / threads=4 / lookahead_threads=1 / sliced_threads=0 / nr=0 / decimate=1 / interlaced=0 / bluray_compat=0 / constrained_intra=0 / bframes=3 / b_pyramid=2 / b_adapt=1 / b_bias=0 / direct=3 / weightb=1 / open_gop=0 / weightp=2 / keyint=250 / keyint_min=25 / scenecut=0 / intra_refresh=0 / rc_lookahead=50 / rc=abr / mbtree=1 / bitrate=3000 / ratetol=1.0 / qcomp=0.60 / qpmin=0 / qpmax=69 / qpstep=4 / ip_ratio=1.40 / aq=1:1.00
Аудио
Идентификатор : 2
Формат : AAC
Формат/Информация : Advanced Audio Codec
Профиль формата : LC
Идентификатор кодека : 40
Продолжительность : 15 м. 57 с.
Duration_LastFrame : -21 мс.
Вид битрейта : Постоянный
Битрейт : 127 Кбит/сек
Каналы : 2 канала
Расположение каналов : Front: L R
Частота : 44,1 КГц
Частота кадров : 43,066 кадра/сек (1024 spf)
Метод сжатия : С потерями
Размер потока : 14,5 Мбайт (4%)
Default : Да
Alternate group : 1

Скрин

[Цитировать]
Edik

Нормальная любовь прекрасна!

[Цитировать]
Cynep

Судя по скриншотам, никакого Hardcore тут нет. :)
И тем более нет Big Dick... Смеюсь

[Цитировать]
killer80

Есть разговоры, но после:)
 
Показать сообщения:    

Текущее время: 22-Июл 07:55

Часовой пояс: UTC + 3


Вы не можете начинать темы
Вы не можете отвечать на сообщения
Вы не можете редактировать свои сообщения
Вы не можете удалять свои сообщения
Вы не можете голосовать в опросах
Вы не можете прикреплять файлы к сообщениям
Вы не можете скачивать файлы