Хоббит: Нежданное путешествие (Реж. Версия)

-Название: Хоббит: Нежданное путешествие
Оригинальное название: The Hobbit: An Unexpected Journey
Год выпуска: 2012
Страна: США, Новая Зеландия
Жанр: фэнтези, приключения
Продолжительность: 03:02:31
Перевод: Дубляж
Субтитры: русские (Форсированные), русские (Полные), английские (Полные)-Режиссер: Питер Джексон / Peter Jackson-В ролях: Мартин Фриман (Bilbo), Иэн МакКеллен (Gandalf), Ричард Армитедж (Thorin), Джеймс Несбитт (Bofur), Кен Стотт (Balin), Грэм МакТавиш (Dwalin), Дин О’Горман (Fili), Эйдан Тернер (Kili), Стивен Хантер (Bombur), Сильвестр МакКой (Radagast), Джед Брофи (Nori), Марк Хэдлоу (Dori / Bert Troll)-Описание:
Фильм повествует о путешествии Бильбо Бэггинса, который пускается в грандиозный поход, целью которого является отвоевание утраченного королевства гномов Эребор у зловещего дракона Смауга. Совершенно неожиданно с хоббитом налаживает контакт волшебник Гэндальф Серый. Так Бильбо находит себя, присоединяясь к компании тринадцати гномов, возглавляемых легендарным воином, Торином Дубощитом. Их путешествие проляжет через Дикий Край, через предательские земли, населенные гоблинами и орками, смертоносными варгами и гигантскими пауками, народом, меняющим шкуры, и волшебниками.
И хотя их цель находится на Востоке, среди пустошей Одинокой Горы, сначала им придется выбраться из туннелей гоблинов, где Бильбо встретит существо, которое изменит его жизнь навсегда... Голлума.
Здесь, один на один с Голлумом, на берегу подземного озера, непритязательный Бильбо Бэггинс обнаружит не только скрытые в глубине души хитрость и отвагу, которые удивят даже его, но и завладеет «прелестным» колечком Голлума, которое обладает нежданными и полезными свойствами... Простое золотое кольцо, c которым связана судьба всего Средиземья, нитями, о которых Бильбо не мог даже вообразить.-Рейтинг
-Качество: BDRip-AVC 60fps
Формат: MKV
Видео кодек: AVC
Аудио кодек:AC3
Видео: AVC, 1024x424 (2.40:1), 2685 kbps, 59,940 fps, 0,103 bpp
Аудио: русский / AC3 / 5.1 / 48 kHz / 448 kbps / 16 bit |Дубляж|
Навигация по главам: есть- -

MI

General
Unique ID : 173134281678868104482255496804369067933 (0x82407322B83E8E2CBF9E0DD198F26F9D)
Complete name : A:\Фильмы\Хоббит BDRip-AVC 60fps R.G. HD-Films\Хоббит 1 Нежданное путешествие.mkv
Format : Matroska
Format version : Version 4 / Version 2
File size : 4.00 GiB
Duration : 3h 2mn
Overall bit rate : 3 137 Kbps
Movie name : Tiberiumsun69
Encoded date : UTC 2015-06-28 04:02:29
Writing application : mkvmerge v7.9.0 ('Birds') 64bit
Writing library : libebml v1.3.1 + libmatroska v1.4.2
Attachment : Yes
Video
ID : 1
Format : AVC
Format/Info : Advanced Video Codec
Format profile : High@L4.1
Format settings, CABAC : Yes
Format settings, ReFrames : 4 frames
Codec ID : V_MPEG4/ISO/AVC
Duration : 3h 2mn
Bit rate : 2 685 Kbps
Width : 1 024 pixels
Height : 424 pixels
Display aspect ratio : 2.40:1
Frame rate : 59.940 fps
Color space : YUV
Chroma subsampling : 4:2:0
Bit depth : 8 bits
Scan type : Progressive
Bits/(Pixel*Frame) : 0.103
Stream size : 3.35 GiB (84%)
Title : Tiberiumsun69
Writing library : x264 core 146 r2538 121396c
Encoding settings : cabac=1 / ref=4 / deblock=1:0:0 / analyse=0x3:0x113 / me=umh / subme=9 / psy=1 / psy_rd=1.00:0.10 / mixed_ref=1 / me_range=32 / chroma_me=1 / trellis=2 / 8x8dct=1 / cqm=0 / deadzone=21,11 / fast_pskip=0 / chroma_qp_offset=-3 / threads=12 / lookahead_threads=3 / sliced_threads=0 / nr=0 / decimate=1 / interlaced=0 / bluray_compat=0 / constrained_intra=0 / bframes=16 / b_pyramid=2 / b_adapt=2 / b_bias=0 / direct=3 / weightb=1 / open_gop=0 / weightp=2 / keyint=600 / keyint_min=59 / scenecut=40 / intra_refresh=0 / rc_lookahead=60 / rc=2pass / mbtree=1 / bitrate=2685 / ratetol=1.0 / qcomp=0.60 / qpmin=0 / qpmax=69 / qpstep=4 / cplxblur=20.0 / qblur=0.5 / vbv_maxrate=50000 / vbv_bufsize=62500 / nal_hrd=none / filler=0 / ip_ratio=1.40 / aq=1:1.00
Language : English
Default : Yes
Forced : No
Audio
ID : 2
Format : AC-3
Format/Info : Audio Coding 3
Mode extension : CM (complete main)
Codec ID : A_AC3
Duration : 3h 2mn
Bit rate mode : Constant
Bit rate : 448 Kbps
Channel(s) : 6 channels
Channel positions : Front: L C R, Side: L R, LFE
Sampling rate : 48.0 KHz
Bit depth : 16 bits
Compression mode : Lossy
Stream size : 585 MiB (14%)
Title : Дубляж
Language : Russian
Default : Yes
Forced : No
Text #1
ID : 3
Format : UTF-8
Codec ID : S_TEXT/UTF8
Codec ID/Info : UTF-8 Plain Text
Title : Форсированные
Language : Russian
Default : Yes
Forced : No
Text #2
ID : 4
Format : UTF-8
Codec ID : S_TEXT/UTF8
Codec ID/Info : UTF-8 Plain Text
Title : Полные
Language : Russian
Default : No
Forced : No
Text #3
ID : 5
Format : UTF-8
Codec ID : S_TEXT/UTF8
Codec ID/Info : UTF-8 Plain Text
Title : Полные
Language : English
Default : No
Forced : No
Menu
00:00:00.000 : ru:Chapter 01
00:10:11.861 : ru:Chapter 02
00:14:08.681 : ru:Chapter 03
00:17:27.254 : ru:Chapter 04
00:18:44.540 : ru:Chapter 05
00:23:16.561 : ru:Chapter 06
00:27:59.469 : ru:Chapter 07
00:36:04.871 : ru:Chapter 08
00:41:17.266 : ru:Chapter 09
00:46:30.829 : ru:Chapter 10
00:53:04.181 : ru:Chapter 11
00:58:07.650 : ru:Chapter 12
00:59:55.049 : ru:Chapter 13
01:10:42.154 : ru:Chapter 14
01:15:01.455 : ru:Chapter 15
01:18:52.602 : ru:Chapter 16
01:24:56.674 : ru:Chapter 17
01:30:34.429 : ru:Chapter 18
01:34:10.436 : ru:Chapter 19
01:37:24.463 : ru:Chapter 20
01:39:03.479 : ru:Chapter 21
01:41:40.803 : ru:Chapter 22
01:50:22.532 : ru:Chapter 23
01:52:59.773 : ru:Chapter 24
01:59:06.305 : ru:Chapter 25
02:03:57.513 : ru:Chapter 26
02:09:51.492 : ru:Chapter 27
02:23:21.384 : ru:Chapter 28
02:25:18.626 : ru:Chapter 29
02:26:31.115 : ru:Chapter 30
02:30:52.668 : ru:Chapter 31
02:33:00.421 : ru:Chapter 32
02:35:52.593 : ru:Chapter 33
02:46:51.209 : ru:Chapter 34
02:52:21.372 : ru:Chapter 35

Скриншоты

Хоббит: Пустошь Смауга (Реж. Версия)

-Название: Хоббит: Пустошь Смауга
Оригинальное название: The Hobbit: The Desolation of Smaug
Год выпуска: 2013
Страна: США, Новая Зеландия
Жанр: фэнтези, приключения
Продолжительность: 03:06:35
Перевод: Дубляж
Субтитры: русские (Форсированные), русские (Полные), английские (Полные)-Режиссер: Питер Джексон / Peter Jackson-В ролях: Мартин Фриман (Bilbo), Ричард Армитедж (Thorin), Иэн МакКеллен (Gandalf), Эванджелин Лилли (Tauriel), Орландо Блум (Legolas), Люк Эванс (Bard / Girion), Бенедикт Камбербэтч (Smaug / Necromancer, озвучка), Ли Пейс (Thranduil), Кен Стотт (Balin), Эйдан Тернер (Kili), Грэм МакТавиш (Dwalin), Джеймс Несбитт (Bofur)-Описание:
Продолжение путешествия хоббита Бильбо Бэггинса, волшебника Гэндальфа и 13 отважных гномов. Их компания обязана завершить своё путешествие к Одинокой горе. Там они должны встретиться с величайшей опасностью из всех - созданием куда более ужасающим, чем все их прошлые противники, которое проверит на прочность не только их мужество, но крепость их дружбы и правильность выбранного пути, - драконом Смаугом.-Рейтинг
-Качество: BDRip-AVC 60fps
Формат: MKV
Видео кодек: AVC
Аудио кодек:AC3
Видео: AVC, 1024x424 (2.40:1), 2595 kbps, 59,940 fps, 0,100 bpp
Аудио: русский / AC3 / 5.1 / 48 kHz / 448 kbps / 16 bit |Дубляж|
Навигация по главам: есть- -

MI

General
Unique ID : 211926402162876571195822563110233346912 (0x9F6F8A5734FF8801965B7DDCB2D89360)
Complete name : A:\Фильмы\Хоббит BDRip-AVC 60fps R.G. HD-Films\Хоббит 2 Пустошь Смауга.mkv
Format : Matroska
Format version : Version 4 / Version 2
File size : 3.97 GiB
Duration : 3h 6mn
Overall bit rate : 3 047 Kbps
Movie name : Tiberiumsun69
Encoded date : UTC 2015-06-28 13:26:30
Writing application : mkvmerge v7.9.0 ('Birds') 64bit
Writing library : libebml v1.3.1 + libmatroska v1.4.2
Attachment : Yes
Video
ID : 1
Format : AVC
Format/Info : Advanced Video Codec
Format profile : High@L4.1
Format settings, CABAC : Yes
Format settings, ReFrames : 4 frames
Codec ID : V_MPEG4/ISO/AVC
Duration : 3h 6mn
Bit rate : 2 595 Kbps
Width : 1 024 pixels
Height : 424 pixels
Display aspect ratio : 2.40:1
Frame rate : 59.940 fps
Color space : YUV
Chroma subsampling : 4:2:0
Bit depth : 8 bits
Scan type : Progressive
Bits/(Pixel*Frame) : 0.100
Stream size : 3.31 GiB (83%)
Title : Tiberiumsun69
Writing library : x264 core 146 r2538 121396c
Encoding settings : cabac=1 / ref=4 / deblock=1:0:0 / analyse=0x3:0x113 / me=umh / subme=9 / psy=1 / psy_rd=1.00:0.10 / mixed_ref=1 / me_range=32 / chroma_me=1 / trellis=2 / 8x8dct=1 / cqm=0 / deadzone=21,11 / fast_pskip=0 / chroma_qp_offset=-3 / threads=12 / lookahead_threads=3 / sliced_threads=0 / nr=0 / decimate=1 / interlaced=0 / bluray_compat=0 / constrained_intra=0 / bframes=16 / b_pyramid=2 / b_adapt=2 / b_bias=0 / direct=3 / weightb=1 / open_gop=0 / weightp=2 / keyint=600 / keyint_min=59 / scenecut=40 / intra_refresh=0 / rc_lookahead=60 / rc=2pass / mbtree=1 / bitrate=2595 / ratetol=1.0 / qcomp=0.60 / qpmin=0 / qpmax=69 / qpstep=4 / cplxblur=20.0 / qblur=0.5 / vbv_maxrate=50000 / vbv_bufsize=62500 / nal_hrd=none / filler=0 / ip_ratio=1.40 / aq=1:1.00
Language : English
Default : Yes
Forced : No
Audio
ID : 2
Format : AC-3
Format/Info : Audio Coding 3
Mode extension : CM (complete main)
Codec ID : A_AC3
Duration : 3h 6mn
Bit rate mode : Constant
Bit rate : 448 Kbps
Channel(s) : 6 channels
Channel positions : Front: L C R, Side: L R, LFE
Sampling rate : 48.0 KHz
Bit depth : 16 bits
Compression mode : Lossy
Stream size : 598 MiB (15%)
Title : Дубляж
Language : Russian
Default : Yes
Forced : No
Text #1
ID : 3
Format : UTF-8
Codec ID : S_TEXT/UTF8
Codec ID/Info : UTF-8 Plain Text
Title : Форсированные
Language : Russian
Default : Yes
Forced : No
Text #2
ID : 4
Format : UTF-8
Codec ID : S_TEXT/UTF8
Codec ID/Info : UTF-8 Plain Text
Title : Полные
Language : Russian
Default : No
Forced : No
Text #3
ID : 5
Format : UTF-8
Codec ID : S_TEXT/UTF8
Codec ID/Info : UTF-8 Plain Text
Title : Полные
Language : English
Default : No
Forced : No
Menu
00:00:00.000 : en:Chapter 1
00:07:33.411 : en:Chapter 2
00:12:00.261 : en:Chapter 3
00:12:59.403 : en:Chapter 4
00:15:55.329 : en:Chapter 5
00:20:56.880 : en:Chapter 6
00:23:15.310 : en:Chapter 7
00:25:52.634 : en:Chapter 8
00:29:59.214 : en:Chapter 9
00:38:13.708 : en:Chapter 10
00:46:43.717 : en:Chapter 11
00:49:46.274 : en:Chapter 12
00:53:19.195 : en:Chapter 13
00:55:10.181 : en:Chapter 14
00:58:07.817 : en:Chapter 15
01:08:42.283 : en:Chapter 16
01:12:22.296 : en:Chapter 17
01:15:45.332 : en:Chapter 18
01:19:09.828 : en:Chapter 19
01:22:46.795 : en:Chapter 20
01:25:09.395 : en:Chapter 21
01:28:07.490 : en:Chapter 22
01:31:15.178 : en:Chapter 23
01:36:02.756 : en:Chapter 24
01:37:35.724 : en:Chapter 25
01:40:35.320 : en:Chapter 26
01:45:16.476 : en:Chapter 27
01:48:44.434 : en:Chapter 28
01:50:31.625 : en:Chapter 29
01:52:36.332 : en:Chapter 30
01:53:08.239 : en:Chapter 31
01:59:16.315 : en:Chapter 32
02:07:11.790 : en:Chapter 33
02:07:39.068 : en:Chapter 34
02:09:22.629 : en:Chapter 35
02:12:48.335 : en:Chapter 36
02:22:00.803 : en:Chapter 37
02:22:43.429 : en:Chapter 38
02:23:17.879 : en:Chapter 39
02:24:56.187 : en:Chapter 40
02:26:45.046 : en:Chapter 41
02:29:18.783 : en:Chapter 42
02:33:12.683 : en:Chapter 43
02:34:57.579 : en:Chapter 44
02:36:13.155 : en:Chapter 45
02:37:45.914 : en:Chapter 46
02:39:08.789 : en:Chapter 47
02:41:39.815 : en:Chapter 48
02:44:05.794 : en:Chapter 49
02:51:16.683 : en:Chapter 50
02:56:05.179 : en:Chapter 51

Скриншоты

Хоббит: Битва пяти воинств

-Название: Хоббит: Битва пяти воинств
Оригинальное название: The Hobbit: The Battle of the Five Armies
Год выпуска: 2014
Страна: Новая Зеландия, США
Жанр: фэнтези, приключения
Продолжительность: 02:24:29
Перевод: Дубляж
Субтитры: русские (Форсированные), русские (Полные), английские (Полные)-Режиссер: Питер Джексон / Peter Jackson-В ролях: Мартин Фриман (Bilbo Baggins), Иэн МакКеллен (Gandalf), Ричард Армитедж (Thorin), Люк Эванс (Bard), Эванджелин Лилли (Tauriel), Ли Пейс (Thranduil), Орландо Блум (Legolas), Бенедикт Камбербэтч (Smaug / Necromancer, озвучка), Кен Стотт (Balin), Эйдан Тернер (Kili), Грэм МакТавиш (Dwalin), Уильям Кирчер (Bifur)-Описание:
Когда отряд из тринадцати гномов нанимал хоббита Бильбо Бэгинса в качестве взломщика и четырнадцатого, «счастливого», участника похода к Одинокой горе, Бильбо полагал, что его приключения закончатся, когда он выполнит свою задачу - найдет сокровище, которое так необходимо предводителю гномов Торину. Путешествие в Эребор, захваченное драконом Смаугом королевство гномов, оказалось еще более опасным, чем предполагали гномы и даже Гэндальф - мудрый волшебник, протянувший Торину и его отряду руку помощи.
В погоню за гномами устремилась армия орков, ведомых пробудившимся в руинах древним злом, а эльфы и люди, с которыми Бильбо и его товарищам пришлось иметь дело во время путешествия и которые пострадали от последствий желания гномов вернуть свой дом, предъявили права на щедрое вознаграждение - часть сокровищ Одинокой горы. Скоро неподалеку от Одинокой горы встретятся пять армий, и лишь кровопролитная битва определит результаты смелого гномьего похода.-Рейтинг
-Качество: BDRip-AVC 60fps
Формат: MKV
Видео кодек: AVC
Аудио кодек:AC3
Видео: AVC, 1024x424 (2.40:1), 3480 kbps, 59,940 fps, 0,134 bpp
Аудио: русский / AC3 / 5.1 / 48 kHz / 448 kbps / 16 bit |Дубляж|
Навигация по главам: есть- -

MI

General
Unique ID : 214492354851744089654017823854260693591 (0xA15DB993619F0DBA9D10450B1CD4AA57)
Complete name : A:\Фильмы\Хоббит BDRip-AVC 60fps R.G. HD-Films\Хоббит 3 Битва пяти воинств.mkv
Format : Matroska
Format version : Version 4 / Version 2
File size : 3.97 GiB
Duration : 2h 24mn
Overall bit rate : 3 932 Kbps
Movie name : Tiberiumsun69
Encoded date : UTC 2015-06-28 04:31:20
Writing application : mkvmerge v7.9.0 ('Birds') 64bit
Writing library : libebml v1.3.1 + libmatroska v1.4.2
Attachment : Yes
Video
ID : 1
Format : AVC
Format/Info : Advanced Video Codec
Format profile : High@L4.1
Format settings, CABAC : Yes
Format settings, ReFrames : 4 frames
Codec ID : V_MPEG4/ISO/AVC
Duration : 2h 24mn
Bit rate : 3 480 Kbps
Width : 1 024 pixels
Height : 424 pixels
Display aspect ratio : 2.40:1
Frame rate : 59.940 fps
Color space : YUV
Chroma subsampling : 4:2:0
Bit depth : 8 bits
Scan type : Progressive
Bits/(Pixel*Frame) : 0.134
Stream size : 3.44 GiB (87%)
Title : Tiberiumsun69
Writing library : x264 core 146 r2538 121396c
Encoding settings : cabac=1 / ref=4 / deblock=1:0:0 / analyse=0x3:0x113 / me=umh / subme=9 / psy=1 / psy_rd=1.00:0.10 / mixed_ref=1 / me_range=32 / chroma_me=1 / trellis=2 / 8x8dct=1 / cqm=0 / deadzone=21,11 / fast_pskip=0 / chroma_qp_offset=-3 / threads=12 / lookahead_threads=3 / sliced_threads=0 / nr=0 / decimate=1 / interlaced=0 / bluray_compat=0 / constrained_intra=0 / bframes=16 / b_pyramid=2 / b_adapt=2 / b_bias=0 / direct=3 / weightb=1 / open_gop=0 / weightp=2 / keyint=600 / keyint_min=59 / scenecut=40 / intra_refresh=0 / rc_lookahead=60 / rc=2pass / mbtree=1 / bitrate=3480 / ratetol=1.0 / qcomp=0.60 / qpmin=0 / qpmax=69 / qpstep=4 / cplxblur=20.0 / qblur=0.5 / vbv_maxrate=50000 / vbv_bufsize=62500 / nal_hrd=none / filler=0 / ip_ratio=1.40 / aq=1:1.00
Language : English
Default : Yes
Forced : No
Audio
ID : 2
Format : AC-3
Format/Info : Audio Coding 3
Mode extension : CM (complete main)
Codec ID : A_AC3
Duration : 2h 24mn
Bit rate mode : Constant
Bit rate : 448 Kbps
Channel(s) : 6 channels
Channel positions : Front: L C R, Side: L R, LFE
Sampling rate : 48.0 KHz
Bit depth : 16 bits
Compression mode : Lossy
Stream size : 463 MiB (11%)
Title : Дублированный
Language : Russian
Default : Yes
Forced : No
Text #1
ID : 3
Format : UTF-8
Codec ID : S_TEXT/UTF8
Codec ID/Info : UTF-8 Plain Text
Title : Форсированные
Language : Russian
Default : Yes
Forced : No
Text #2
ID : 4
Format : UTF-8
Codec ID : S_TEXT/UTF8
Codec ID/Info : UTF-8 Plain Text
Title : Полные
Language : Russian
Default : No
Forced : No
Text #3
ID : 5
Format : UTF-8
Codec ID : S_TEXT/UTF8
Codec ID/Info : UTF-8 Plain Text
Title : Полные
Language : English
Default : No
Forced : No
Menu
00:00:00.000 : ru: Вступление
00:05:12.394 : ru: Нападение дракона, пожар в поселении
00:12:26.287 : ru: Митрандир в клетке
00:12:58.527 : ru: Тауриель, высадка хоббитов на берег
00:18:36.656 : ru: Гора гномов, королевство Елибор
00:23:21.400 : ru: В новом лагере
00:24:35.390 : ru: Разговор двух орков
00:25:43.625 : ru: Изгнание Тауриель
00:27:12.255 : ru: Сражение против слуг Саурона, появление Саурона
00:34:30.108 : ru: Если кто найдет камень и утаит его, я жестоко отомщу
00:38:27.722 : ru: Известия о гномах
00:39:46.967 : ru: Им есть за что благодарить судьбу
00:40:57.579 : ru: Появление Эльфов
00:43:54.505 : ru: Мы не грабить тебя пришли
00:49:06.025 : ru: Мифриловая кольчуга
00:52:36.318 : ru: Леголас и Тауриель
00:53:53.188 : ru: Гендельф и король эльфов
00:56:09.657 : ru: Стая летучих мышей
00:58:04.731 : ru: Королевский камень
01:01:57.963 : ru: Признание в воровстве
01:07:13.695 : ru: Лесная фея
01:10:00.445 : ru: Появление армии орков
01:12:29.886 : ru: Сражение с орками
01:16:51.523 : ru: Вторжение орков в город
01:20:05.926 : ru: Ничтожний Торрин
01:22:15.345 : ru: Ты изменился Торрин
01:24:25.225 : ru: За каменной стеной пока другие бьются с врагами вместо нас.
01:29:18.895 : ru: Разгар сражения с орками
01:33:01.576 : ru: Я не спрашиваю твоего разрешения Гендельф
01:40:16.385 : ru: Сражение на льду
01:48:15.529 : ru: Торрин против орка
01:54:22.438 : ru: Смерть Торрина
01:57:41.636 : ru: Прощание отца и сына
02:00:47.907 : ru: Отдых после войны
02:06:48.434 : ru: Возвращение домой
02:11:31.300 : ru: Конец

Скриншоты

[Цитировать]
envy

Ressident,
keyint=600 / keyint_min=59
Как было так и осталось...
Видимо это никто не передает тибериуму...

[Цитировать]
envy

3122Не было ни одного косяка
Это нужно для того чтобы перестраховаться))
И тем самым защитить себя от комментариев "почему не запускается видео?"

[Цитировать]
Alexey

спасибо
 
Показать сообщения:    

Текущее время: 20-Окт 02:48

Часовой пояс: UTC + 3


Вы не можете начинать темы
Вы не можете отвечать на сообщения
Вы не можете редактировать свои сообщения
Вы не можете удалять свои сообщения
Вы не можете голосовать в опросах
Вы не можете прикреплять файлы к сообщениям
Вы не можете скачивать файлы