Стражи Галактики. Часть 2 / Guardians of the Galaxy Vol. 2 (2017) BDRip 1080p | 60 fps Пираты Карибского моря: Мертвецы не рассказывают сказки / Pirates of the Caribbean: Dead Men Tell No Tales (2017) BDRip 1080p | 60 fps Человек-паук: Возвращение домой / Spider-Man: Homecoming (2017) BDRip 1080p | 60 fps Валериан и город тысячи планет / Valerian and the City of a Thousand Planets (2017) BDRip 1080p | 60 fps Мстители: Эра Альтрона / Avengers: Age of Ultron (2015) BDRip 1080p | 60 fps Тор: Рагнарёк / Thor: Ragnarok (2017) BDRip 1080p | 60 fps Форсаж 8 / The Fate of the Furious (2017) BDRip 1080p | 60 fps Тёмная башня / The Dark Tower (2017) BDRip 720p | 60 fps
  1. bot

    Стаж:
    3 года 6 месяцев
    Сообщений:
    410
    Пол:
    Не указан
    «Хо́ббит» — поставленная режиссёром Питером Джексоном серия из трёх связанных единым сюжетом кинофильмов, представляющая собой экранизацию повести Дж. Р. Р. Толкина «Хоббит, или Туда и обратно».
    Фильмы являются вольной экранизацией повести Толкина «Хоббит, или Туда и обратно». Они рассказывают нам о приключениях хоббита Бильбо Бэггинса и тринадцати гномов по пути к Одинокой горе, а также являются приквелом к кинотрилогии «Властелин колец».

    Хоббит: Нежданное путешествие / The Hobbit: An Unexpected Journey (2012)

    «From the smallest beginnings come the greatest legends»- Информация
    Название: Хоббит: Нежданное путешествие
    Оригинальное название: The Hobbit: An Unexpected Journey
    Год выхода: 2012
    Жанр: фэнтези, приключения
    Режиссер: Питер Джексон
    Сценарий: Фрэнсис Уолш, Филиппа Бойенс, Питер Джексон
    Продюсер: Кэролинн Каннингэм, Питер Джексон, Фрэнсис Уолш
    В ролях: Мартин Фриман, Иэн МакКеллен, Ричард Армитэдж, Джеймс Несбитт, Кен Стотт, Кейт Бланшетт, Элайджа Вуд, Хьюго Уивинг, Кристофер Ли, Энди Серкис
    --Сюжет:
    Фильм повествует о путешествии Бильбо Бэггинса, который пускается в грандиозный поход, целью которого является отвоевание утраченного королевства гномов Эребор у зловещего дракона Смауга. Совершенно неожиданно с хоббитом налаживает контакт волшебник Гэндальф Серый. Так Бильбо находит себя, присоединяясь к компании тринадцати гномов, возглавляемых легендарным воином, Торином Дубощитом. Их путешествие проляжет через Дикий Край, через предательские земли, населенные гоблинами и орками, смертоносными варгами и гигантскими пауками, народом, меняющим шкуры, и волшебниками.
    И хотя их цель находится на Востоке, среди пустошей Одинокой Горы, сначала им придется выбраться из туннелей гоблинов, где Бильбо встретит существо, которое изменит его жизнь навсегда… Голлума.
    Здесь, один на один с Голлумом, на берегу подземного озера, непритязательный Бильбо Бэггинс обнаружит не только скрытые в глубине души хитрость и отвагу, которые удивят даже его, но и завладеет «прелестным» колечком Голлума, которое обладает нежданными и полезными свойствами… Простое золотое кольцо, c которым связана судьба всего Средиземья, нитями, о которых Бильбо не мог даже вообразить.

    Страна: США, Новая Зеландия
    Продолжительность: 03:02:31

    Файл
    Кодек: MPEG4/ISO/AVC H.264
    Формат: MKV
    Качество: BDRip-AVC | 60 fps
    Видео: 1024x424 (2.40:1) | 59.940 fps | 2.6 Мбит/сек
    Аудио: AC3 | 5.1 | 48 kHz | 448 kbps | 16 bit | Дубляж |
    Субтитры: русские (Форсированные), русские (Полные), английские (Полные)

    MedifInfo

    Video
    ID : 1
    Format : AVC
    Format/Info : Advanced Video Codec
    Format profile : High@L4.1
    Format settings, CABAC : Yes
    Format settings, ReFrames : 4 frames
    Codec ID : V_MPEG4/ISO/AVC
    Duration : 3h 2mn
    Bit rate : 2 685 Kbps
    Width : 1 024 pixels
    Height : 424 pixels
    Display aspect ratio : 2.40:1
    Frame rate : 59.940 fps
    Color space : YUV
    Chroma subsampling : 4:2:0
    Bit depth : 8 bits
    Scan type : Progressive
    Bits/(Pixel*Frame) : 0.103
    Stream size : 3.35 GiB (84%)
    Writing library : x264 core 146 r2538 121396c
    Encoding settings : cabac=1 / ref=4 / deblock=1:0:0 / analyse=0x3:0x113 / me=umh / subme=9 / psy=1 / psy_rd=1.00:0.10 / mixed_ref=1 / me_range=32 / chroma_me=1 / trellis=2 / 8x8dct=1 / cqm=0 / deadzone=21,11 / fast_pskip=0 / chroma_qp_offset=-3 / threads=12 / lookahead_threads=3 / sliced_threads=0 / nr=0 / decimate=1 / interlaced=0 / bluray_compat=0 / constrained_intra=0 / bframes=16 / b_pyramid=2 / b_adapt=2 / b_bias=0 / direct=3 / weightb=1 / open_gop=0 / weightp=2 / keyint=600 / keyint_min=59 / scenecut=40 / intra_refresh=0 / rc_lookahead=60 / rc=2pass / mbtree=1 / bitrate=2685 / ratetol=1.0 / qcomp=0.60 / qpmin=0 / qpmax=69 / qpstep=4 / cplxblur=20.0 / qblur=0.5 / vbv_maxrate=50000 / vbv_bufsize=62500 / nal_hrd=none / filler=0 / ip_ratio=1.40 / aq=1:1.00
    Language : English
    Default : Yes
    Forced : No
    Audio
    ID : 2
    Format : AC-3
    Format/Info : Audio Coding 3
    Mode extension : CM (complete main)
    Codec ID : A_AC3
    Duration : 3h 2mn
    Bit rate mode : Constant
    Bit rate : 448 Kbps
    Channel(s) : 6 channels
    Channel positions : Front: L C R, Side: L R, LFE
    Sampling rate : 48.0 KHz
    Bit depth : 16 bits
    Compression mode : Lossy
    Stream size : 585 MiB (14%)
    Title : Дубляж
    Language : Russian
    Default : Yes
    Forced : No
    Text #1
    ID : 3
    Format : UTF-8
    Codec ID : S_TEXT/UTF8
    Codec ID/Info : UTF-8 Plain Text
    Title : Форсированные
    Language : Russian
    Default : Yes
    Forced : No
    Text #2
    ID : 4
    Format : UTF-8
    Codec ID : S_TEXT/UTF8
    Codec ID/Info : UTF-8 Plain Text
    Title : Полные
    Language : Russian
    Default : No
    Forced : No
    Text #3
    ID : 5
    Format : UTF-8
    Codec ID : S_TEXT/UTF8
    Codec ID/Info : UTF-8 Plain Text
    Title : Полные
    Language : English
    Default : No
    Forced : No
    Menu
    00:00:00.000 : ru:Chapter 01
    00:10:11.861 : ru:Chapter 02
    00:14:08.681 : ru:Chapter 03
    00:17:27.254 : ru:Chapter 04
    00:18:44.540 : ru:Chapter 05
    00:23:16.561 : ru:Chapter 06
    00:27:59.469 : ru:Chapter 07
    00:36:04.871 : ru:Chapter 08
    00:41:17.266 : ru:Chapter 09
    00:46:30.829 : ru:Chapter 10
    00:53:04.181 : ru:Chapter 11
    00:58:07.650 : ru:Chapter 12
    00:59:55.049 : ru:Chapter 13
    01:10:42.154 : ru:Chapter 14
    01:15:01.455 : ru:Chapter 15
    01:18:52.602 : ru:Chapter 16
    01:24:56.674 : ru:Chapter 17
    01:30:34.429 : ru:Chapter 18
    01:34:10.436 : ru:Chapter 19
    01:37:24.463 : ru:Chapter 20
    01:39:03.479 : ru:Chapter 21
    01:41:40.803 : ru:Chapter 22
    01:50:22.532 : ru:Chapter 23
    01:52:59.773 : ru:Chapter 24
    01:59:06.305 : ru:Chapter 25
    02:03:57.513 : ru:Chapter 26
    02:09:51.492 : ru:Chapter 27
    02:23:21.384 : ru:Chapter 28
    02:25:18.626 : ru:Chapter 29
    02:26:31.115 : ru:Chapter 30
    02:30:52.668 : ru:Chapter 31
    02:33:00.421 : ru:Chapter 32
    02:35:52.593 : ru:Chapter 33
    02:46:51.209 : ru:Chapter 34
    02:52:21.372 : ru:Chapter 35

    Хоббит: Пустошь Смауга / The Hobbit: The Desolation of Smaug (2013)

    «Beyond darkness... beyond desolation... lies the greatest danger of all»- Информация
    Название: Хоббит: Пустошь Смауга
    Оригинальное название: The Hobbit: The Desolation of Smaug
    Год выхода: 2013
    Жанр: фэнтези, приключения
    Режиссер: Питер Джексон
    Сценарий: Фрэнсис Уолш, Филиппа Бойенс, Питер Джексон
    Продюсер: Кэролинн Каннингэм, Питер Джексон, Фрэнсис Уолш
    В ролях: Мартин Фриман, Иэн МакКеллен, Ричард Армитедж, Джеймс Несбитт, Кен Стотт, Грэм МакТавиш, Уильям Кирчер, Стивен Хантер, Дин О’Горман, Эйдан Тернер
    --Сюжет:
    Продолжение путешествия хоббита Бильбо Бэггинса, волшебника Гэндальфа и 13 отважных гномов. Их компания обязана завершить своё путешествие к Одинокой горе. Там они должны встретиться с величайшей опасностью из всех — созданием куда более ужасающим, чем все их прошлые противники, которое проверит на прочность не только их мужество, но крепость их дружбы и правильность выбранного пути, — драконом Смаугом.
    Страна: США, Новая Зеландия
    Продолжительность: 03:06:35

    Файл
    Кодек: MPEG4/ISO/AVC H.264
    Формат: MKV
    Качество: BDRip-AVC | 60 fps
    Видео: 1024x424 (2.40:1) | 59.940 fps | 2.5 Мбит/сек
    Аудио: AC3 | 5.1 | 48 kHz | 448 kbps | 16 bit | Дубляж |
    Субтитры: русские (Форсированные), русские (Полные), английские (Полные)

    MedifInfo

    Video
    ID : 1
    Format : AVC
    Format/Info : Advanced Video Codec
    Format profile : High@L4.1
    Format settings, CABAC : Yes
    Format settings, ReFrames : 4 frames
    Codec ID : V_MPEG4/ISO/AVC
    Duration : 3h 6mn
    Bit rate : 2 595 Kbps
    Width : 1 024 pixels
    Height : 424 pixels
    Display aspect ratio : 2.40:1
    Frame rate : 59.940 fps
    Color space : YUV
    Chroma subsampling : 4:2:0
    Bit depth : 8 bits
    Scan type : Progressive
    Bits/(Pixel*Frame) : 0.100
    Stream size : 3.31 GiB (83%)
    Writing library : x264 core 146 r2538 121396c
    Encoding settings : cabac=1 / ref=4 / deblock=1:0:0 / analyse=0x3:0x113 / me=umh / subme=9 / psy=1 / psy_rd=1.00:0.10 / mixed_ref=1 / me_range=32 / chroma_me=1 / trellis=2 / 8x8dct=1 / cqm=0 / deadzone=21,11 / fast_pskip=0 / chroma_qp_offset=-3 / threads=12 / lookahead_threads=3 / sliced_threads=0 / nr=0 / decimate=1 / interlaced=0 / bluray_compat=0 / constrained_intra=0 / bframes=16 / b_pyramid=2 / b_adapt=2 / b_bias=0 / direct=3 / weightb=1 / open_gop=0 / weightp=2 / keyint=600 / keyint_min=59 / scenecut=40 / intra_refresh=0 / rc_lookahead=60 / rc=2pass / mbtree=1 / bitrate=2595 / ratetol=1.0 / qcomp=0.60 / qpmin=0 / qpmax=69 / qpstep=4 / cplxblur=20.0 / qblur=0.5 / vbv_maxrate=50000 / vbv_bufsize=62500 / nal_hrd=none / filler=0 / ip_ratio=1.40 / aq=1:1.00
    Language : English
    Default : Yes
    Forced : No
    Audio
    ID : 2
    Format : AC-3
    Format/Info : Audio Coding 3
    Mode extension : CM (complete main)
    Codec ID : A_AC3
    Duration : 3h 6mn
    Bit rate mode : Constant
    Bit rate : 448 Kbps
    Channel(s) : 6 channels
    Channel positions : Front: L C R, Side: L R, LFE
    Sampling rate : 48.0 KHz
    Bit depth : 16 bits
    Compression mode : Lossy
    Stream size : 598 MiB (15%)
    Title : Дубляж
    Language : Russian
    Default : Yes
    Forced : No
    Text #1
    ID : 3
    Format : UTF-8
    Codec ID : S_TEXT/UTF8
    Codec ID/Info : UTF-8 Plain Text
    Title : Форсированные
    Language : Russian
    Default : Yes
    Forced : No
    Text #2
    ID : 4
    Format : UTF-8
    Codec ID : S_TEXT/UTF8
    Codec ID/Info : UTF-8 Plain Text
    Title : Полные
    Language : Russian
    Default : No
    Forced : No
    Text #3
    ID : 5
    Format : UTF-8
    Codec ID : S_TEXT/UTF8
    Codec ID/Info : UTF-8 Plain Text
    Title : Полные
    Language : English
    Default : No
    Forced : No
    Menu
    00:00:00.000 : en:Chapter 1
    00:07:33.411 : en:Chapter 2
    00:12:00.261 : en:Chapter 3
    00:12:59.403 : en:Chapter 4
    00:15:55.329 : en:Chapter 5
    00:20:56.880 : en:Chapter 6
    00:23:15.310 : en:Chapter 7
    00:25:52.634 : en:Chapter 8
    00:29:59.214 : en:Chapter 9
    00:38:13.708 : en:Chapter 10
    00:46:43.717 : en:Chapter 11
    00:49:46.274 : en:Chapter 12
    00:53:19.195 : en:Chapter 13
    00:55:10.181 : en:Chapter 14
    00:58:07.817 : en:Chapter 15
    01:08:42.283 : en:Chapter 16
    01:12:22.296 : en:Chapter 17
    01:15:45.332 : en:Chapter 18
    01:19:09.828 : en:Chapter 19
    01:22:46.795 : en:Chapter 20
    01:25:09.395 : en:Chapter 21
    01:28:07.490 : en:Chapter 22
    01:31:15.178 : en:Chapter 23
    01:36:02.756 : en:Chapter 24
    01:37:35.724 : en:Chapter 25
    01:40:35.320 : en:Chapter 26
    01:45:16.476 : en:Chapter 27
    01:48:44.434 : en:Chapter 28
    01:50:31.625 : en:Chapter 29
    01:52:36.332 : en:Chapter 30
    01:53:08.239 : en:Chapter 31
    01:59:16.315 : en:Chapter 32
    02:07:11.790 : en:Chapter 33
    02:07:39.068 : en:Chapter 34
    02:09:22.629 : en:Chapter 35
    02:12:48.335 : en:Chapter 36
    02:22:00.803 : en:Chapter 37
    02:22:43.429 : en:Chapter 38
    02:23:17.879 : en:Chapter 39
    02:24:56.187 : en:Chapter 40
    02:26:45.046 : en:Chapter 41
    02:29:18.783 : en:Chapter 42
    02:33:12.683 : en:Chapter 43
    02:34:57.579 : en:Chapter 44
    02:36:13.155 : en:Chapter 45
    02:37:45.914 : en:Chapter 46
    02:39:08.789 : en:Chapter 47
    02:41:39.815 : en:Chapter 48
    02:44:05.794 : en:Chapter 49
    02:51:16.683 : en:Chapter 50
    02:56:05.179 : en:Chapter 51

    Хоббит: Битва пяти воинств / The Hobbit: The Battle of the Five Armies (2014)

    «Последнее путешествие в Средиземье»- Информация
    Название: Хоббит: Битва пяти воинств
    Оригинальное название: The Hobbit: The Battle of the Five Armies
    Год выхода: 2014
    Жанр: фэнтези, приключения
    Режиссер: Питер Джексон
    Сценарий: Фрэнсис Уолш, Филиппа Бойенс, Питер Джексон
    Продюсер: Кэролинн Каннингэм, Питер Джексон, Фрэнсис Уолш
    В ролях: Мартин Фриман, Иэн МакКеллен, Ричард Армитедж, Люк Эванс, Эванджелин Лилли, Ли Пейс, Орландо Блум, Бенедикт Камбербэтч, Кен Стотт, Эйдан Тернер
    --Сюжет:
    Когда отряд из тринадцати гномов нанимал хоббита Бильбо Бэгинса в качестве взломщика и четырнадцатого, «счастливого», участника похода к Одинокой горе, Бильбо полагал, что его приключения закончатся, когда он выполнит свою задачу — найдет сокровище, которое так необходимо предводителю гномов Торину. Путешествие в Эребор, захваченное драконом Смаугом королевство гномов, оказалось еще более опасным, чем предполагали гномы и даже Гэндальф — мудрый волшебник, протянувший Торину и его отряду руку помощи.
    В погоню за гномами устремилась армия орков, ведомых пробудившимся в руинах древним злом, а эльфы и люди, с которыми Бильбо и его товарищам пришлось иметь дело во время путешествия и которые пострадали от последствий желания гномов вернуть свой дом, предъявили права на щедрое вознаграждение — часть сокровищ Одинокой горы. Скоро неподалеку от Одинокой горы встретятся пять армий, и лишь кровопролитная битва определит результаты смелого гномьего похода.

    Страна: США, Новая Зеландия
    Продолжительность: 02:44:02

    Файл
    Кодек: MPEG4/ISO/AVC H.264
    Формат: MKV
    Качество: BDRip-AVC | 60 fps
    Видео: 1024x424 (2.40:1) | 59.940 fps | 3.0 Мбит/сек
    Аудио: AC3 | 5.1 | 48 kHz | 448 kbps | 16 bit | Дубляж |
    Субтитры: русские (Форсированные), русские (Полные), английские (Полные)

    MedifInfo

    Video
    ID : 1
    Format : AVC
    Format/Info : Advanced Video Codec
    Format profile : High@L4.1
    Format settings, CABAC : Yes
    Format settings, ReFrames : 4 frames
    Codec ID : V_MPEG4/ISO/AVC
    Duration : 2h 44mn
    Bit rate : 3 000 Kbps
    Width : 1 024 pixels
    Height : 424 pixels
    Display aspect ratio : 2.40:1
    Frame rate mode : Constant
    Frame rate : 59.880 fps
    Original frame rate : 59.940 fps
    Color space : YUV
    Chroma subsampling : 4:2:0
    Bit depth : 8 bits
    Scan type : Progressive
    Bits/(Pixel*Frame) : 0.115
    Stream size : 3.36 GiB (85%)
    Writing library : x264 core 146 r2538 121396c
    Encoding settings : cabac=1 / ref=3 / deblock=1:0:0 / analyse=0x3:0x113 / me=umh / subme=11 / psy=1 / psy_rd=1.00:0.10 / mixed_ref=1 / me_range=32 / chroma_me=1 / trellis=2 / 8x8dct=1 / cqm=0 / deadzone=21,11 / fast_pskip=0 / chroma_qp_offset=-3 / threads=12 / lookahead_threads=3 / sliced_threads=0 / nr=0 / decimate=1 / interlaced=0 / bluray_compat=0 / constrained_intra=0 / bframes=16 / b_pyramid=2 / b_adapt=2 / b_bias=0 / direct=3 / weightb=1 / open_gop=0 / weightp=2 / keyint=250 / keyint_min=25 / scenecut=40 / intra_refresh=0 / rc_lookahead=40 / rc=2pass / mbtree=0 / bitrate=3000 / ratetol=1.0 / qcomp=0.60 / qpmin=0 / qpmax=69 / qpstep=4 / cplxblur=20.0 / qblur=0.5 / vbv_maxrate=14000 / vbv_bufsize=14000 / nal_hrd=none / filler=0 / ip_ratio=1.40 / pb_ratio=1.30 / aq=1:1.00
    Language : English
    Default : Yes
    Forced : No
    Audio
    ID : 2
    Format : AC-3
    Format/Info : Audio Coding 3
    Mode extension : CM (complete main)
    Format settings, Endianness : Big
    Codec ID : A_AC3
    Duration : 2h 44mn
    Bit rate mode : Constant
    Bit rate : 448 Kbps
    Channel(s) : 6 channels
    Channel positions : Front: L C R, Side: L R, LFE
    Sampling rate : 48.0 KHz
    Compression mode : Lossy
    Stream size : 526 MiB (13%)
    Title : Дубляж
    Language : Russian
    Default : Yes
    Forced : No
    Text #1
    ID : 3
    Format : UTF-8
    Codec ID : S_TEXT/UTF8
    Codec ID/Info : UTF-8 Plain Text
    Title : Форсированные
    Language : Russian
    Default : Yes
    Forced : No
    Text #2
    ID : 4
    Format : UTF-8
    Codec ID : S_TEXT/UTF8
    Codec ID/Info : UTF-8 Plain Text
    Title : Полные
    Language : Russian
    Default : No
    Forced : No
    Text #3
    ID : 5
    Format : UTF-8
    Codec ID : S_TEXT/UTF8
    Codec ID/Info : UTF-8 Plain Text
    Title : Полные
    Language : English
    Default : No
    Forced : No
    Menu
    00:00:00.000 : en:Fire and Water
    00:05:12.061 : en:Bard the Dragon-Slayer
    00:12:47.016 : en:Dungeons of the Dark Lord
    00:13:18.964 : en:Shores of the Long Lake
    00:18:57.219 : en:Not at Home
    00:23:42.003 : en:Others will Now Look to the Mountain
    00:24:56.119 : en:Legions of the Defiler
    00:26:04.354 : en:The Mark of Gundabad
    00:27:32.984 : en:Attack on Dol Guldur
    00:35:45.351 : en:Summon Our Friends
    00:36:41.073 : en:The King's Jewel
    00:40:41.898 : en:The Ruins of Dale
    00:42:01.144 : en:Erebor Fortified
    00:43:11.756 : en:The Elvenking's Aid
    00:46:16.148 : en:The Gathering of the Clouds
    00:51:27.668 : en:A Token of Friendship
    00:54:57.961 : en:The Shadow of Gundabad
    00:56:14.830 : en:The Last Move in a Master Plan
    00:58:31.299 : en:Bolg of the North
    01:00:26.957 : en:The Night Watch
    01:02:43.593 : en:A Thief in the Night
    01:06:10.175 : en:An Honest Burglar
    01:12:23.297 : en:Dain Ironfoot
    01:17:22.555 : en:The Clouds Burst
    01:20:36.331 : en:The Battle at Dale
    01:24:57.217 : en:The Darkest Hour
    01:28:41.775 : en:Dragon-Sickness
    01:30:52.280 : en:The Return of Thorin Oakenshild
    01:33:02.159 : en:Sons of Durin
    01:35:12.832 : en:"To the King!"
    01:38:32.489 : en:A Call to Arms
    01:39:42.893 : en:Thorin's Plan
    01:41:00.596 : en:The War Chariot
    01:45:03.505 : en:Courage and Cowardice
    01:47:13.635 : en:The Fifth Army
    01:49:05.288 : en:Scouting Ravenhill
    01:50:03.013 : en:Blood of the Eldar
    01:52:59.606 : en:An Unforeseen Remedy
    01:53:51.282 : en:The Fallen
    01:57:15.236 : en:The Battle at Ravenhill
    02:05:38.572 : en:To the Death
    02:12:07.044 : en:Parting in Friendship
    02:20:07.440 : en:King under the Mountain
    02:22:27.205 : en:The Return Journey
    02:26:11.596 : en:The Last Stage
    02:30:54.462 : en:Credits
  2. Стаж:
    2 года 6 месяцев
    Сообщений:
    2
    Пол:
    Не указан
    Кто-нибудь может подсказать где найти 3й фильм Режисерской версии Хоббита в BD качестве с Хорошим разрешением картинки?
  3. Стаж:
    1 год 4 месяца
    Сообщений:
    6
    Пол:
    Не указан
    Господа, у меня плохая новость: в первой части трилогии примерно после часа просмотра начинается рассинхрон звука и картинки. и он увеличивается с течением фильма, достигая,к его концу, примерно 3х - 4х секунд. Это только у меня так? и, если нет, то можно ли эту проблемку как-то решить?
    08-Дек-2016 21:00 (спустя 10 месяцев 23 дня)
  4. Стаж:
    3 года 6 месяцев
    Сообщений:
    2284
    Пол:
    Мужской
    Вадим Нагибин,
    Ну это поделка не нашей группы , обновите кодеки .
    08-Дек-2016 21:23 (спустя 23 минуты)
  5. Стаж:
    1 год 4 месяца
    Сообщений:
    6
    Пол:
    Не указан
    7024Вадим Нагибин,
    Ну это поделка не нашей группы , обновите кодеки .
    хорошо, попробую. спасибо за ответ)
    однако, посмотрел вчера 2ю часть и всё было в порядке. ведь, если бы проблема была в кодеках, ситуация повторилась бы?
    10-Дек-2016 11:56 (спустя 1 день 14 часов)
  6. Стаж:
    3 года 6 месяцев
    Сообщений:
    2284
    Пол:
    Мужской
    7034
    7024Вадим Нагибин,
    Ну это поделка не нашей группы , обновите кодеки .
    хорошо, попробую. спасибо за ответ)
    однако, посмотрел вчера 2ю часть и всё было в порядке. ведь, если бы проблема была в кодеках, ситуация повторилась бы?
    Ну , что сказать , скачал 21 человек , и только у Вас жалобы на рассинхронизацию видеоряда с аудио .
    Этот видеоряд делала не наша группа , так что я даже проверить не могу так ли это , качать точно не буду Улыбаюсь
    10-Дек-2016 13:09 (спустя 1 час 13 минут)


Вы не можете начинать темы
Вы не можете отвечать на сообщения
Вы не можете редактировать свои сообщения
Вы не можете удалять свои сообщения
Вы не можете голосовать в опросах
Вы не можете прикреплять файлы к сообщениям
Вы не можете скачивать файлы