[Цитировать]
ZHz

Название: Хоббит: Пустошь Смауга
Оригинальное название: The Hobbit: The Desolation of Smaug
Год выпуска: 2013
Страна: США, Новая Зеландия
Жанр: фэнтези, приключения
Продолжительность: 03:06:32
Перевод: Дубляж, лицензия
Субтитры: Русские, английские, украинские
Режиссер: Питер Джексон-В ролях: Мартин Фриман, Ричард Армитедж, Иэн МакКеллен, Эванджелин Лилли, Орландо Блум, Люк Эванс, Бенедикт Камбербэтч, Ли Пейс, Кен Стотт, Эйдан Тернер--Описание: Продолжение путешествия хоббита Бильбо Бэггинса, волшебника Гэндальфа и 13 отважных гномов. Их компания обязана завершить своё путешествие к Одинокой горе. Там они должны встретиться с величайшей опасностью из всех — созданием куда более ужасающим, чем все их прошлые противники, которое проверит на прочность не только их мужество, но крепость их дружбы и правильность выбранного пути, — драконом Смаугом.--
СЭМПЛ
Кодек: AVC
Формат: MKV
Качество: BDRip 1080p
Видео: 1920x800, 59.940 fps, 9513 Kbps
Аудио №1:AC-3, 6 ch, 448 Kbps, 48000 Hz (Дубляж)
Аудио №2:AC-3, 6 ch, 640 Kbps, 48000 Hz (оригинал)
Навигация по главам: есть

х264

x264
: frame I:3906 Avg QP:14.87 size:171488
x264
: frame P:185979 Avg QP:17.50 size: 43082
x264
: frame B:481193 Avg QP:20.46 size: 10237

MediaInfo

General
Unique ID : 193846184650792107902436986862242947804 (0x91D56ACB27FD86E195583C3966B8E2DC)
Complete name : J:\60FPS\The Hobbit. The Desolation of Smaug\The Hobbit. The Desolation of Smaug [60FPS by ZHz].mkv
Format : Matroska
Format version : Version 4 / Version 2
File size : 14.1 GiB
Duration : 3h 6mn
Overall bit rate : 10.8 Mbps
Movie name : The Hobbit: The Desolation of Smaug (2013) [Extended Edition] - BDRip 720p от Neofilm
Encoded date : UTC 2014-12-08 09:03:09
Writing application : mkvmerge v7.3.0 ('Nouages') 64bit built on Oct 22 2014 18:53:34
Writing library : libebml v1.3.0 + libmatroska v1.4.1
DURATION : 03:05:29.762000000
NUMBER_OF_FRAMES : 2282
NUMBER_OF_BYTES : 71994
_STATISTICS_WRITING_APP : mkvmerge v7.3.0 ('Nouages') 64bit built on Oct 22 2014 18:53:34
_STATISTICS_WRITING_DATE_UTC : 2014-12-08 09:03:09
_STATISTICS_TAGS : BPS DURATION NUMBER_OF_FRAMES NUMBER_OF_BYTES
Video
ID : 1
Format : AVC
Format/Info : Advanced Video Codec
Format profile : High@L4.2
Format settings, CABAC : Yes
Format settings, ReFrames : 5 frames
Codec ID : V_MPEG4/ISO/AVC
Duration : 3h 6mn
Bit rate : 9 513 Kbps
Width : 1 920 pixels
Height : 800 pixels
Display aspect ratio : 2.40:1
Frame rate mode : Constant
Frame rate : 59.880 fps
Original frame rate : 59.940 fps
Color space : YUV
Chroma subsampling : 4:2:0
Bit depth : 8 bits
Scan type : Progressive
Bits/(Pixel*Frame) : 0.103
Stream size : 12.4 GiB (88%)
Writing library : x264 core 130 r2273 b3065e6
Encoding settings : cabac=1 / ref=5 / deblock=1:-1:-1 / analyse=0x3:0x111 / me=esa / subme=6 / psy=1 / psy_rd=1.00:0.15 / mixed_ref=1 / me_range=4 / chroma_me=1 / trellis=2 / 8x8dct=1 / cqm=0 / deadzone=21,11 / fast_pskip=1 / chroma_qp_offset=-3 / threads=12 / lookahead_threads=3 / sliced_threads=0 / nr=0 / decimate=1 / interlaced=0 / bluray_compat=0 / constrained_intra=0 / bframes=4 / b_pyramid=2 / b_adapt=2 / b_bias=0 / direct=1 / weightb=1 / open_gop=0 / weightp=2 / keyint=250 / keyint_min=25 / scenecut=40 / intra_refresh=0 / rc_lookahead=50 / rc=crf / mbtree=1 / crf=16.0 / qcomp=0.60 / qpmin=0 / qpmax=69 / qpstep=4 / vbv_maxrate=50000 / vbv_bufsize=50000 / crf_max=0.0 / nal_hrd=none / ip_ratio=1.40 / aq=1:1.00
Language : English
Default : Yes
Forced : No
DURATION : 03:06:35.829000000
NUMBER_OF_FRAMES : 671078
NUMBER_OF_BYTES : 13608041546
_STATISTICS_WRITING_APP : mkvmerge v7.3.0 ('Nouages') 64bit built on Oct 22 2014 18:53:34
_STATISTICS_WRITING_DATE_UTC : 2014-12-08 09:03:09
_STATISTICS_TAGS : BPS DURATION NUMBER_OF_FRAMES NUMBER_OF_BYTES
Audio #1
ID : 2
Format : AC-3
Format/Info : Audio Coding 3
Mode extension : CM (complete main)
Format settings, Endianness : Big
Codec ID : A_AC3
Duration : 3h 6mn
Bit rate mode : Constant
Bit rate : 448 Kbps
Channel(s) : 6 channels
Channel positions : Front: L C R, Side: L R, LFE
Sampling rate : 48.0 KHz
Bit depth : 16 bits
Compression mode : Lossy
Stream size : 598 MiB (4%)
Title : Dub
Language : Russian
Default : Yes
Forced : Yes
Audio #2
ID : 3
Format : AC-3
Format/Info : Audio Coding 3
Mode extension : CM (complete main)
Format settings, Endianness : Big
Codec ID : A_AC3
Duration : 3h 6mn
Bit rate mode : Constant
Bit rate : 640 Kbps
Channel(s) : 6 channels
Channel positions : Front: L C R, Side: L R, LFE
Sampling rate : 48.0 KHz
Bit depth : 16 bits
Compression mode : Lossy
Stream size : 854 MiB (6%)
Language : English
Default : No
Forced : No
Text #1
ID : 4
Format : UTF-8
Codec ID : S_TEXT/UTF8
Codec ID/Info : UTF-8 Plain Text
Title : Forced
Language : Russian
Default : Yes
Forced : Yes
Text #2
ID : 5
Format : UTF-8
Codec ID : S_TEXT/UTF8
Codec ID/Info : UTF-8 Plain Text
Language : Russian
Default : No
Forced : No
Text #3
ID : 6
Format : UTF-8
Codec ID : S_TEXT/UTF8
Codec ID/Info : UTF-8 Plain Text
Language : Ukrainian
Default : No
Forced : No
Text #4
ID : 7
Format : UTF-8
Codec ID : S_TEXT/UTF8
Codec ID/Info : UTF-8 Plain Text
Language : English
Default : No
Forced : No
Text #5
ID : 8
Format : UTF-8
Codec ID : S_TEXT/UTF8
Codec ID/Info : UTF-8 Plain Text
Title : SDH
Language : English
Default : No
Forced : No
Menu
00:00:00.000 : en:1
00:07:33.000 : en:2
00:12:00.000 : en:3
00:12:59.000 : en:4
00:15:55.000 : en:5
00:20:56.000 : en:6
00:23:15.000 : en:7
00:25:52.000 : en:8
00:29:59.000 : en:9
00:38:14.000 : en:10
00:46:43.000 : en:11
00:49:46.000 : en:12
00:53:19.000 : en:13
00:55:10.000 : en:14
00:58:07.000 : en:15
01:08:42.000 : en:16
01:12:22.000 : en:17
01:15:45.000 : en:18
01:19:10.000 : en:19
01:22:46.000 : en:20
01:25:09.000 : en:21
01:28:07.000 : en:22
01:31:15.000 : en:23
01:36:02.000 : en:24
01:37:35.000 : en:25
01:40:35.000 : en:26
01:45:16.000 : en:27
01:48:44.000 : en:28
01:50:31.000 : en:29
01:52:36.000 : en:30
01:53:08.000 : en:31
01:59:16.000 : en:32
02:07:11.000 : en:33
02:07:39.000 : en:34
02:09:22.000 : en:35
02:12:48.000 : en:36
02:22:00.000 : en:37
02:22:43.000 : en:38
02:23:17.000 : en:39
02:24:56.000 : en:40
02:26:45.000 : en:41
02:29:18.000 : en:42
02:33:12.000 : en:43
02:34:57.000 : en:44
02:36:13.000 : en:45
02:37:45.000 : en:46
02:39:08.000 : en:47
02:41:39.000 : en:48
02:44:06.000 : en:49
02:51:16.000 : en:50
02:56:05.000 : en:51

Bitrate Viewer

Скриншоты



Последний раз редактировалось: ZHz (2015-02-10 12:55), всего редактировалось 2 раз(а)

[Цитировать]
Kryl

683х1000 - постер ...как то уже через чур (((

[Цитировать]
ZHz

KRYL, ужимается норм

[Цитировать]
Kryl

да , дело не в ленте ...
просто я когда раздачу открываю , на моем мониторе в пол экрана постер (

[Цитировать]
ZHz

KRYL, у меня опера ужимает, можно нажать на постер и он в полный размер откроется

[Цитировать]
Kryl

да у меня тоже ужимает , но все равно многовато ...

[Цитировать]
ZHz

поправил все

[Цитировать]
Kryl

Молодец )

[Цитировать]
mimok

1064поправил все
так и не научился сэмпл делать,или забил...
ZHz, ну ты же Глобальный Модератор, и это косяк когда сэмпл по тех.данным отличается от фильма в раздаче.

[Цитировать]
ZHz

mimok, ты опять про битрейт?

[Цитировать]
mimok

1067mimok, ты опять про битрейт?
а ты сам сравни MI сэмпла и фильма, и посмотри различия

[Цитировать]
ZHz

mimok, я же тебе говорил про переменный битрейт, посмотри на график, что приложен, видишь как он прыгает? Вычисляется среднее значение битрейта на основе того, что есть. У тебя у самого битрейты не совпадают, я проверил.

[Цитировать]
mimok

ZHz, согласен не совпадают, но не в 2раза а в несколько Кбит. Хорошо,буду считать что у меня переменный битрейт "не прыгает" :ar:

[Цитировать]
ZHz

mimok, прогони через bitrate viewer и посмотри как меняется средний битрейт

[Цитировать]
Kryl

Заменить постер ..... !!! и забить на тот хостинг ....!!!
 
Показать сообщения:    

Текущее время: 24-Сен 06:23

Часовой пояс: UTC + 3


Вы не можете начинать темы
Вы не можете отвечать на сообщения
Вы не можете редактировать свои сообщения
Вы не можете удалять свои сообщения
Вы не можете голосовать в опросах
Вы не можете прикреплять файлы к сообщениям
Вы не можете скачивать файлы