«Последнее путешествие в Средиземье»- Информация о фильме
Название: Хоббит: Битва пяти воинств
Оригинальное название: The Hobbit: The Battle of the Five Armies
Год выхода: 2014
Жанр: Фэнтези, приключения
Режиссер: Питер Джексон
Сценарий: Фрэнсис Уолш, Филиппа Бойенс, Питер Джексон
Продюсер: Кэролинн Каннингэм, Питер Джексон, Фрэнсис Уолш
В ролях: Мартин Фриман, Иэн МакКеллен, Ричард Армитедж, Люк Эванс, Эванджелин Лилли, Ли Пейс, Орландо Блум, Бенедикт Камбербэтч, Кен Стотт, Эйдан Тернер
--О фильме:
Когда отряд из тринадцати гномов нанимал хоббита Бильбо Бэгинса в качестве взломщика и четырнадцатого, «счастливого», участника похода к Одинокой горе, Бильбо полагал, что его приключения закончатся, когда он выполнит свою задачу — найдет сокровище, которое так необходимо предводителю гномов Торину. Путешествие в Эребор, захваченное драконом Смаугом королевство гномов, оказалось еще более опасным, чем предполагали гномы и даже Гэндальф — мудрый волшебник, протянувший Торину и его отряду руку помощи.
В погоню за гномами устремилась армия орков, ведомых пробудившимся в руинах древним злом, а эльфы и люди, с которыми Бильбо и его товарищам пришлось иметь дело во время путешествия и которые пострадали от последствий желания гномов вернуть свой дом, предъявили права на щедрое вознаграждение — часть сокровищ Одинокой горы. Скоро неподалеку от Одинокой горы встретятся пять армий, и лишь кровопролитная битва определит результаты смелого гномьего похода.
- - Страна: Новая Зеландия, США
Продолжительность: 02:24:29
-- Файл
Кодек: MPEG4/ISO/AVC H.264
Формат: MKV
Качество: BDRip 720p
Видео: 1280x534 | 59.940 fps | 7.0 Мбит/сек
Аудио 1: AC3 | 5.1 | 48 kHz | 448 kbps | 16 bit | Дубляж |
Аудио 2: AC3 | 5.1 | 48 kHz | 448 kbps | 16 bit | Дубляж |
Субтитры:Russian (Fors)

MedifInfo

Video
ID : 1
Format : AVC
Format/Info : Advanced Video Codec
Format profile : High@L4.1
Format settings, CABAC : Yes
Format settings, ReFrames : 9 frames
Codec ID : V_MPEG4/ISO/AVC
Duration : 2h 24mn
Bit rate : 7 070 Kbps
Width : 1 280 pixels
Height : 534 pixels
Display aspect ratio : 2.40:1
Frame rate mode : Constant
Frame rate : 59.880 fps
Original frame rate : 59.940 fps
Color space : YUV
Chroma subsampling : 4:2:0
Bit depth : 8 bits
Scan type : Progressive
Bits/(Pixel*Frame) : 0.173
Stream size : 7.14 GiB (87%)
Writing library : x264 core 130 r2273 b3065e6
Encoding settings : cabac=1 / ref=9 / deblock=1:0:0 / analyse=0x3:0x133 / me=umh / subme=11 / psy=1 / psy_rd=1.00:0.00 / mixed_ref=1 / me_range=28 / chroma_me=1 / trellis=2 / 8x8dct=1 / cqm=0 / deadzone=21,11 / fast_pskip=0 / chroma_qp_offset=-2 / threads=12 / lookahead_threads=1 / sliced_threads=0 / nr=0 / decimate=1 / interlaced=0 / bluray_compat=0 / constrained_intra=0 / bframes=5 / b_pyramid=2 / b_adapt=2 / b_bias=0 / direct=3 / weightb=1 / open_gop=0 / weightp=2 / keyint=250 / keyint_min=25 / scenecut=40 / intra_refresh=0 / rc=crf / mbtree=0 / crf=17.0 / qcomp=0.60 / qpmin=0 / qpmax=69 / qpstep=4 / ip_ratio=1.40 / pb_ratio=1.30 / aq=2:0.80
Language : English
Default : Yes
Forced : No
Audio #1
ID : 2
Format : AC-3
Format/Info : Audio Coding 3
Mode extension : CM (complete main)
Format settings, Endianness : Big
Codec ID : A_AC3
Duration : 2h 24mn
Bit rate mode : Constant
Bit rate : 448 Kbps
Channel(s) : 6 channels
Channel positions : Front: L C R, Side: L R, LFE
Sampling rate : 48.0 KHz
Bit depth : 16 bits
Compression mode : Lossy
Stream size : 463 MiB (6%)
Title : Dub
Language : Russian
Default : Yes
Forced : No
Audio #2
ID : 3
Format : AC-3
Format/Info : Audio Coding 3
Mode extension : CM (complete main)
Format settings, Endianness : Big
Codec ID : A_AC3
Duration : 2h 24mn
Bit rate mode : Constant
Bit rate : 448 Kbps
Channel(s) : 6 channels
Channel positions : Front: L C R, Side: L R, LFE
Sampling rate : 48.0 KHz
Bit depth : 16 bits
Compression mode : Lossy
Stream size : 463 MiB (6%)
Title : Eng
Language : English
Default : No
Forced : No
Text #1
ID : 4
Format : UTF-8
Codec ID : S_TEXT/UTF8
Codec ID/Info : UTF-8 Plain Text
Title : Rus forced
Language : Russian
Default : Yes
Forced : Yes
Text #2
ID : 5
Format : UTF-8
Codec ID : S_TEXT/UTF8
Codec ID/Info : UTF-8 Plain Text
Title : Rus full
Language : Russian
Default : No
Forced : No
Text #3
ID : 6
Format : UTF-8
Codec ID : S_TEXT/UTF8
Codec ID/Info : UTF-8 Plain Text
Title : Eng full
Language : English
Default : No
Forced : No
Menu
00:00:00.000 : en:00:00:00.000
00:05:12.395 : en:00:05:12.395
00:12:26.287 : en:00:12:26.287
00:12:58.528 : en:00:12:58.528
00:18:36.657 : en:00:18:36.657
00:23:21.400 : en:00:23:21.400
00:24:35.391 : en:00:24:35.391
00:25:43.625 : en:00:25:43.625
00:27:12.256 : en:00:27:12.256
00:34:30.110 : en:00:34:30.110
00:38:27.722 : en:00:38:27.722
00:39:46.968 : en:00:39:46.968
00:40:57.580 : en:00:40:57.580
00:43:54.507 : en:00:43:54.507
00:49:06.026 : en:00:49:06.026
00:52:36.320 : en:00:52:36.320
00:53:53.188 : en:00:53:53.188
00:56:09.658 : en:00:56:09.658
00:58:04.731 : en:00:58:04.731
01:01:57.964 : en:01:01:57.964
01:07:13.696 : en:01:07:13.696
01:10:00.446 : en:01:10:00.446
01:12:29.887 : en:01:12:29.887
01:16:51.524 : en:01:16:51.524
01:20:05.926 : en:01:20:05.926
01:22:15.347 : en:01:22:15.347
01:24:25.227 : en:01:24:25.227
01:26:35.899 : en:01:26:35.899
01:29:18.895 : en:01:29:18.895
01:31:17.389 : en:01:31:17.389
01:32:03.852 : en:01:32:03.852
01:33:01.576 : en:01:33:01.576
01:35:58.169 : en:01:35:58.169
01:36:52.432 : en:01:36:52.432
01:40:16.385 : en:01:40:16.385
01:48:15.531 : en:01:48:15.531
01:54:22.439 : en:01:54:22.439
01:57:41.638 : en:01:57:41.638
02:00:47.907 : en:02:00:47.907
02:06:48.434 : en:02:06:48.434
02:11:31.300 : en:02:11:31.300

[Цитировать]
Plusneen

В раздаче файл без разрешения, если мало сидеров будет не удивлюсь.

[Цитировать]
Kryl

2197В раздаче файл без разрешения, если мало сидеров будет не удивлюсь.
Без какого расширения ?

[Цитировать]
Kolek85

Спасибо за ваш сайт! 60 квс это просто супер!
Во я отстал от жизни!
 
Показать сообщения:    

Текущее время: 10-Дек 19:37

Часовой пояс: UTC + 3


Вы не можете начинать темы
Вы не можете отвечать на сообщения
Вы не можете редактировать свои сообщения
Вы не можете удалять свои сообщения
Вы не можете голосовать в опросах
Вы не можете прикреплять файлы к сообщениям
Вы не можете скачивать файлы