[Цитировать]
ZHz

Название: Хоббит: Битва пяти воинств
Оригинальное название: The Hobbit: The Battle of the Five Armies
Год выпуска: 2014
Жанр: фэнтези, приключения
Продолжительность: 02:24:28
Перевод: Дублированный (iTunes Russia)
Субтитры: Русские (Forced, iTunes), Русские (iTunes), Английские, Английские (SDH)
Режиссер: Питер Джексон-В ролях: Мартин Фриман, Иэн МакКеллен, Ричард Армитедж, Люк Эванс, Эванджелин Лилли, Ли Пейс, Орландо Блум, Бенедикт Камбербэтч, Кен Стотт, Эйдан Тернер--Описание: Когда отряд из тринадцати гномов нанимал хоббита Бильбо Бэгинса в качестве взломщика и четырнадцатого, «счастливого», участника похода к Одинокой горе, Бильбо полагал, что его приключения закончатся, когда он выполнит свою задачу — найдет сокровище, которое так необходимо предводителю гномов Торину. Путешествие в Эребор, захваченное драконом Смаугом королевство гномов, оказалось еще более опасным, чем предполагали гномы и даже Гэндальф — мудрый волшебник, протянувший Торину и его отряду руку помощи.
В погоню за гномами устремилась армия орков, ведомых пробудившимся в руинах древним злом, а эльфы и люди, с которыми Бильбо и его товарищам пришлось иметь дело во время путешествия и которые пострадали от последствий желания гномов вернуть свой дом, предъявили права на щедрое вознаграждение — часть сокровищ Одинокой горы. Скоро неподалеку от Одинокой горы встретятся пять армий, и лишь кровопролитная битва определит результаты смелого гномьего похода.
--
СЭМПЛ
Кодек: AVC
Формат: MKV
Качество: BDRip 1080p
Видео: 1920x800, 59.940 fps, 11.6 Mbps
Аудио №1:48 kHz, AC3, 3/2 (L,C,R,l,r) + LFE ch, 384.00 kbps (Дубляж, iTunes Russia)
Аудио №2:48 kHz, DTS, 3/2 (L,C,R,l,r) + LFE ch, 1509.00 kbps (Оригинал)
Навигация по главам: есть

х264

x264
: frame I:2912 Avg QP:15.21 size:228303
x264
: frame P:144720 Avg QP:17.75 size: 57246
x264
: frame B:371931 Avg QP:22.06 size: 10432

MediaInfo

General
Unique ID : 243730284067231239926037013226893629417 (0xB75CBEC84E07C74A87AB99D7C31457E9)
Complete name : J:\60FPS\The Hobbit. The Battle of the Five Armies\The Hobbit. The Battle of the Five Armies [60FPS by ZHz].mkv
Format : Matroska
Format version : Version 4 / Version 2
File size : 13.9 GiB
Duration : 2h 24mn
Overall bit rate : 13.7 Mbps
Encoded date : UTC 2015-03-10 10:52:14
Writing application : mkvmerge v7.5.0 ('Glass Culture') 64bit built on Jan 4 2015 16:48:44
Writing library : libebml v1.3.1 + libmatroska v1.4.2
DURATION : 02:23:20.925000000
NUMBER_OF_FRAMES : 1540
NUMBER_OF_BYTES : 36171
_STATISTICS_WRITING_APP : mkvmerge v7.5.0 ('Glass Culture') 64bit built on Jan 4 2015 16:48:44
_STATISTICS_WRITING_DATE_UT : 2015-03-10 10:52:14
_STATISTICS_TAGS : BPS DURATION NUMBER_OF_FRAMES NUMBER_OF_BYTES
Video
ID : 1
Format : AVC
Format/Info : Advanced Video Codec
Format profile : Main@L4.2
Format settings, CABAC : Yes
Format settings, ReFrames : 4 frames
Codec ID : V_MPEG4/ISO/AVC
Duration : 2h 24mn
Bit rate : 11.6 Mbps
Width : 1 920 pixels
Height : 800 pixels
Display aspect ratio : 2.40:1
Frame rate mode : Constant
Frame rate : 59.880 fps
Original frame rate : 59.940 fps
Color space : YUV
Chroma subsampling : 4:2:0
Bit depth : 8 bits
Scan type : Progressive
Bits/(Pixel*Frame) : 0.126
Stream size : 11.7 GiB (84%)
Writing library : x264 core 144 r2525 40bb568
Encoding settings : cabac=1 / ref=4 / deblock=1:-1:-1 / analyse=0x1:0x111 / me=esa / subme=7 / psy=1 / psy_rd=1.40:0.30 / mixed_ref=1 / me_range=4 / chroma_me=1 / trellis=2 / 8x8dct=0 / cqm=0 / deadzone=21,11 / fast_pskip=1 / chroma_qp_offset=-4 / threads=12 / lookahead_threads=3 / sliced_threads=0 / nr=0 / decimate=1 / interlaced=0 / bluray_compat=0 / constrained_intra=0 / bframes=4 / b_pyramid=2 / b_adapt=2 / b_bias=0 / direct=1 / weightb=1 / open_gop=0 / weightp=2 / keyint=250 / keyint_min=25 / scenecut=40 / intra_refresh=0 / rc_lookahead=50 / rc=crf / mbtree=1 / crf=16.0 / qcomp=0.60 / qpmin=0 / qpmax=69 / qpstep=4 / ip_ratio=1.40 / aq=1:1.00
Language : English
Default : Yes
Forced : No
DURATION : 02:24:28.052000000
NUMBER_OF_FRAMES : 519563
NUMBER_OF_BYTES : 12829514431
_STATISTICS_WRITING_APP : mkvmerge v7.5.0 ('Glass Culture') 64bit built on Jan 4 2015 16:48:44
_STATISTICS_WRITING_DATE_UT : 2015-03-10 10:52:14
_STATISTICS_TAGS : BPS DURATION NUMBER_OF_FRAMES NUMBER_OF_BYTES
Audio #1
ID : 2
Format : AC-3
Format/Info : Audio Coding 3
Mode extension : CM (complete main)
Format settings, Endianness : Big
Codec ID : A_AC3
Duration : 2h 24mn
Bit rate mode : Constant
Bit rate : 384 Kbps
Channel(s) : 6 channels
Channel positions : Front: L C R, Side: L R, LFE
Sampling rate : 48.0 KHz
Bit depth : 16 bits
Compression mode : Lossy
Stream size : 397 MiB (3%)
Title : DUB, iTunes
Language : Russian
Default : Yes
Forced : No
Audio #2
ID : 3
Format : DTS
Format/Info : Digital Theater Systems
Mode : 16
Format settings, Endianness : Big
Codec ID : A_DTS
Duration : 2h 24mn
Bit rate mode : Constant
Bit rate : 1 509 Kbps
Channel(s) : 6 channels
Channel positions : Front: L C R, Side: L R, LFE
Sampling rate : 48.0 KHz
Bit depth : 24 bits
Compression mode : Lossy
Stream size : 1.52 GiB (11%)
Language : English
Default : No
Forced : No
Text #1
ID : 4
Format : UTF-8
Codec ID : S_TEXT/UTF8
Codec ID/Info : UTF-8 Plain Text
Title : Forced
Language : Russian
Default : Yes
Forced : No
Text #2
ID : 5
Format : UTF-8
Codec ID : S_TEXT/UTF8
Codec ID/Info : UTF-8 Plain Text
Language : Russian
Default : No
Forced : No
Text #3
ID : 6
Format : UTF-8
Codec ID : S_TEXT/UTF8
Codec ID/Info : UTF-8 Plain Text
Language : English
Default : No
Forced : No
Text #4
ID : 7
Format : UTF-8
Codec ID : S_TEXT/UTF8
Codec ID/Info : UTF-8 Plain Text
Title : SDH
Language : English
Default : No
Forced : No
Menu
00:00:00.000 : en:00:00:00.000
00:05:12.395 : en:00:05:12.395
00:12:26.287 : en:00:12:26.287
00:12:58.528 : en:00:12:58.528
00:18:36.657 : en:00:18:36.657
00:23:21.400 : en:00:23:21.400
00:24:35.391 : en:00:24:35.391
00:25:43.625 : en:00:25:43.625
00:27:12.256 : en:00:27:12.256
00:34:30.110 : en:00:34:30.110
00:38:27.722 : en:00:38:27.722
00:39:46.968 : en:00:39:46.968
00:40:57.580 : en:00:40:57.580
00:43:54.507 : en:00:43:54.507
00:49:06.026 : en:00:49:06.026
00:52:36.320 : en:00:52:36.320
00:53:53.188 : en:00:53:53.188
00:56:09.658 : en:00:56:09.658
00:58:04.731 : en:00:58:04.731
01:01:57.964 : en:01:01:57.964
01:07:13.696 : en:01:07:13.696
01:10:00.446 : en:01:10:00.446
01:12:29.887 : en:01:12:29.887
01:16:51.524 : en:01:16:51.524
01:20:05.926 : en:01:20:05.926
01:22:15.347 : en:01:22:15.347
01:24:25.227 : en:01:24:25.227
01:26:35.899 : en:01:26:35.899
01:29:18.895 : en:01:29:18.895
01:31:17.389 : en:01:31:17.389
01:32:03.852 : en:01:32:03.852
01:33:01.576 : en:01:33:01.576
01:35:58.169 : en:01:35:58.169
01:36:52.432 : en:01:36:52.432
01:40:16.385 : en:01:40:16.385
01:48:15.531 : en:01:48:15.531
01:54:22.439 : en:01:54:22.439
01:57:41.638 : en:01:57:41.638
02:00:47.907 : en:02:00:47.907
02:06:48.434 : en:02:06:48.434
02:11:31.300 : en:02:11:31.300

Скриншоты

[Цитировать]
izomsk

Не успел я сделать... :ac:
Буду делать тридэ! :ab:

[Цитировать]
Тимур Артыков

Это части с расширенным изданием?

[Цитировать]
Tranch

Тимур Артыков,
Расширенная по осени выйдет :ph34r:

[Цитировать]
Тимур Артыков

Tranch, я имею ввиду про 1 и 2 часть

[Цитировать]
Tranch

Тимур Артыков,
Вот расширенная https://60-fps.org/viewtopic.php?t=260

[Цитировать]
Тимур Артыков

Tranch, а 1 части нет?

[Цитировать]
Tranch

Тимур Артыков,
На этом сайте вроде нет. Дать ссылку?

[Цитировать]
Tranch

Тимур Артыков,
[mod]Не надо ссылки на посторонние ресурсы скидывать !!!
Могли бы сюда перезалить ...
https://60-fps.org/viewtopic.php?t=726[/mod]
 
Показать сообщения:    

Текущее время: 24-Сен 06:11

Часовой пояс: UTC + 3


Вы не можете начинать темы
Вы не можете отвечать на сообщения
Вы не можете редактировать свои сообщения
Вы не можете удалять свои сообщения
Вы не можете голосовать в опросах
Вы не можете прикреплять файлы к сообщениям
Вы не можете скачивать файлы