«Говорят, он один смертный грех»- Информация
Название: Хитмэн
Оригинальное название: Hitman
Год выхода: 2007
Жанр: Боевик, триллер, драма, криминал
Режиссер: Ксавье Жанс
Сценарий: Скип Вудс
Продюсер: Адриан Аскариа, Чарльз Гордон, Пьер-Анж Ле Пожам
В ролях: Тимоти Олифант, Дюгрей Скотт, Ольга Куриленко, Роберт Неппер, Ульрих Томсен, Генри Йен Кьюсик, Михаэль Оффей, Кристиан Эриксон, Эрик Эбони, Джо Шеридан
--Сюжет:
Хитмэн был обучен, как высоко профессиональный убийца, чье самое мощное оружие — это хладнокровие и безмерная гордость за свою работу. 47 — это две последние цифры на штрихкоде, вытатуированном на его затылке, а также его единственное имя.
Но охотник становится добычей, когда 47-й оказывается втянутым в политические интриги. Интерпол и русские военные начинают охоту на киллера по всей восточной Европе, в то время как он сам пытается понять, кто его подставил и почему они пытаются вывести его из игры. Но самую большую угрозу для 47-го представляет волнение его совести и незнакомые эмоции, пробудившиеся в нем после встречи с прекрасной девушкой…
- - Страна: Франция, США
Продолжительность: 01:34:14

Файл
Кодек: MPEG4/ISO/AVC H.264
Формат: MKV
Качество: BDRip 720p | 60 fps
Видео: 1280x544 (2.35:1) | 59.940 fps | 9.2 Мбит/сек
Аудио 1: DTS | 5.1 | 48 kHz | 755 kbps | 24 bit | Дубляж |
Аудио 2: AC3 | 5.1 | 48 kHz | 640 kbps | 16 bit | Дубляж |
Аудио 3: DTS-HD | 5.1 | 48 kHz | 3018 kbps | 24 bit (Core: 5.1 | 48 kHz | 1510 kbps | 24 bit) | ENG |
Субтитры: Русские (Fors), Русские (Full)

MedifInfo

Video
ID : 1
Format : AVC
Format/Info : Advanced Video Codec
Format profile : Main@L4.1
Format settings, CABAC : Yes
Format settings, ReFrames : 9 frames
Codec ID : V_MPEG4/ISO/AVC
Duration : 1h 34mn
Bit rate : 9 271 Kbps
Width : 1 280 pixels
Height : 544 pixels
Display aspect ratio : 2.35:1
Frame rate : 59.940 fps
Color space : YUV
Chroma subsampling : 4:2:0
Bit depth : 8 bits
Scan type : Progressive
Bits/(Pixel*Frame) : 0.222
Stream size : 6.10 GiB (66%)
Writing library : x264 core 146 r2538 121396c
Encoding settings : cabac=1 / ref=9 / deblock=1:0:0 / analyse=0x1:0x111 / me=umh / subme=10 / psy=1 / psy_rd=1.00:0.00 / mixed_ref=1 / me_range=32 / chroma_me=0 / trellis=2 / 8x8dct=0 / cqm=0 / deadzone=21,11 / fast_pskip=1 / chroma_qp_offset=-2 / threads=12 / lookahead_threads=1 / sliced_threads=0 / nr=0 / decimate=0 / interlaced=0 / bluray_compat=0 / constrained_intra=0 / bframes=6 / b_pyramid=2 / b_adapt=2 / b_bias=0 / direct=3 / weightb=1 / open_gop=0 / weightp=2 / keyint=250 / keyint_min=25 / scenecut=40 / intra_refresh=0 / rc=crf / mbtree=0 / crf=14.0 / qcomp=0.60 / qpmin=0 / qpmax=69 / qpstep=4 / ip_ratio=1.40 / pb_ratio=1.30 / aq=1:1.00
Language : English
Default : Yes
Forced : No
Audio #1
ID : 2
Format : DTS
Format/Info : Digital Theater Systems
Codec ID : A_DTS
Duration : 1h 34mn
Bit rate mode : Constant
Bit rate : 755 Kbps
Channel(s) : 6 channels
Channel positions : Front: L C R, Side: L R, LFE
Sampling rate : 48.0 KHz
Bit depth : 24 bits
Compression mode : Lossy
Stream size : 509 MiB (5%)
Title : Дубляж
Language : Russian
Default : No
Forced : No
Audio #2
ID : 3
Format : AC-3
Format/Info : Audio Coding 3
Mode extension : CM (complete main)
Codec ID : A_AC3
Duration : 1h 34mn
Bit rate mode : Constant
Bit rate : 640 Kbps
Channel(s) : 6 channels
Channel positions : Front: L C R, Side: L R, LFE
Sampling rate : 48.0 KHz
Bit depth : 16 bits
Compression mode : Lossy
Stream size : 431 MiB (5%)
Title : Дубляж
Language : Russian
Default : Yes
Forced : No
Audio #3
ID : 6
Format : DTS
Format/Info : Digital Theater Systems
Format profile : HRA / Core
Codec ID : A_DTS
Duration : 1h 34mn
Bit rate mode : Constant
Bit rate : 3 019 Kbps / 1 510 Kbps
Channel(s) : 6 channels
Channel positions : Front: L C R, Side: L R, LFE
Sampling rate : 48.0 KHz
Bit depth : 24 bits
Compression mode : Lossy
Stream size : 1.99 GiB (22%)
Title : English
Language : English
Default : No
Forced : No
Text #1
ID : 4
Format : UTF-8
Codec ID : S_TEXT/UTF8
Codec ID/Info : UTF-8 Plain Text
Title : На места без перевода
Language : Russian
Default : Yes
Forced : Yes
Text #2
ID : 5
Format : UTF-8
Codec ID : S_TEXT/UTF8
Codec ID/Info : UTF-8 Plain Text
Title : Full
Language : Russian
Default : No
Forced : No
Menu
00:00:00.000 : :01. Main Titles
00:02:57.051 : :02. One Question
00:05:03.511 : :03. The Very Best
00:08:14.452 : :04. Going Public
00:13:34.063 : :05. Eyewitness
00:17:43.854 : :06. Storming the Hotel
00:24:15.287 : :07. My Boy Doesn't Miss
00:26:24.249 : :08. As Good As Dead
00:30:19.359 : :09. The Train Station
00:35:43.599 : :10. Dying with Dignity
00:43:28.147 : :11. No More Interference
00:46:47.888 : :12. A Royal Mess
00:48:53.764 : :13. Thrown to the Wolves
00:51:02.684 : :14. Istanbul
00:54:48.201 : :15. Dinner at Eight
00:58:59.702 : :16. Mr. Price
01:04:04.340 : :17. Road Trip
01:06:25.481 : :18. The Key
01:09:41.010 : :19. Bait
01:12:52.242 : :20. Just a Bureaucrat
01:15:32.236 : :21. A Brother's Funeral
01:24:32.400 : :22. Knowing How It Ends
01:27:49.681 : :24. A Good Man?
01:30:24.043 : :24. End Titles


Последний раз редактировалось: bot (2015-11-28 13:34), всего редактировалось 1 раз

[Цитировать]
leviathan

Странно, это у меня сайт глючит или тут действительно описание из "Бегущий в лабиринте 2"?

[Цитировать]
Kryl

4612Странно, это у меня сайт глючит или тут действительно описание из "Бегущий в лабиринте 2"?
Это я глючу :ag:
 
Показать сообщения:    

Текущее время: 25-Сен 12:47

Часовой пояс: UTC + 3


Вы не можете начинать темы
Вы не можете отвечать на сообщения
Вы не можете редактировать свои сообщения
Вы не можете удалять свои сообщения
Вы не можете голосовать в опросах
Вы не можете прикреплять файлы к сообщениям
Вы не можете скачивать файлы