[Цитировать]
BOT2

-Хищники океанов 3D / Ocean Predators 3DГод выпуска: 2013
Страна: США
Жанр: Документальный
Продолжительность: 00:57:19
Перевод: Дубляж-Режиссер: Беньямин Эйхер / Benjamin Eicher, Тимо Дж. Мэйер / Timo Joh. Mayer-Описание:
Фильм погружает зрителя в подводный мир для знакомства с самыми опасными хищниками, от мурены до большой белой акулы, о которых сложено так много мифов и легенд. Один за другим предстают около десяти представителей этой опасной разновидности животного мира, настоящих морских убийц.-Рейтинг
-Качество: BDRip 1080p / 60 FPS [Горизонтальная анаморфная стереопара]
Порядок ракурсов [Правый ракурс первый]
Формат: MKV
Видео кодек: AVC
Аудио кодек: AC3
Видео: AVC, 1920x1080 (16:9), 14500 kbps, 59,940 fps, 0,117 bpp
Аудио: русский / AC3 / 2.0 / 48 kHz / 448 kbps / 16 bit - -

MI

General
Unique ID : 181436593392974665642664310873734145257 (0x887F6AB4DDFF65D6B65C5D1575C264E9)
Complete name : E:\Кодировка\Раздача\Хищники океанов 3D - 60 fps.mkv
Format : Matroska
Format version : Version 4 / Version 2
File size : 5.98 GiB
Duration : 57mn 19s
Overall bit rate : 14.9 Mbps
Encoded date : UTC 2015-07-19 11:47:41
Writing application : mkvmerge v7.0.0 ('Where We Going') 64bit built on Jun 9 2014 15:16:27
Writing library : libebml v1.3.0 + libmatroska v1.4.1
Video
ID : 2
Format : AVC
Format/Info : Advanced Video Codec
Format profile : High@L4.1
Format settings, CABAC : Yes
Format settings, ReFrames : 4 frames
Codec ID : V_MPEG4/ISO/AVC
Duration : 57mn 19s
Bit rate : 14.5 Mbps
Width : 1 920 pixels
Height : 1 080 pixels
Display aspect ratio : 16:9
Frame rate : 59.940 fps
Color space : YUV
Chroma subsampling : 4:2:0
Bit depth : 8 bits
Scan type : Progressive
Bits/(Pixel*Frame) : 0.117
Stream size : 5.68 GiB (95%)
Writing library : x264 core 146 r2538 121396c
Encoding settings : cabac=1 / ref=4 / deblock=1:0:0 / analyse=0x3:0 / me=umh / subme=11 / psy=1 / psy_rd=0.00:0.00 / mixed_ref=1 / me_range=42 / chroma_me=0 / trellis=2 / 8x8dct=1 / cqm=0 / deadzone=21,11 / fast_pskip=0 / chroma_qp_offset=0 / threads=12 / lookahead_threads=3 / sliced_threads=0 / nr=0 / decimate=0 / interlaced=0 / bluray_compat=0 / constrained_intra=0 / bframes=16 / b_pyramid=2 / b_adapt=2 / b_bias=0 / direct=3 / weightb=1 / open_gop=0 / weightp=2 / keyint=250 / keyint_min=25 / scenecut=40 / intra_refresh=0 / rc=2pass / mbtree=0 / bitrate=14500 / ratetol=1.0 / qcomp=0.60 / qpmin=0 / qpmax=69 / qpstep=4 / cplxblur=20.0 / qblur=0.5 / ip_ratio=1.40 / pb_ratio=1.30 / aq=1:0.90
Language : English
Default : Yes
Forced : No
Audio
ID : 1
Format : AC-3
Format/Info : Audio Coding 3
Mode extension : CM (complete main)
Codec ID : A_AC3
Duration : 57mn 19s
Bit rate mode : Constant
Bit rate : 448 Kbps
Channel(s) : 2 channels
Channel positions : Front: L R
Sampling rate : 48.0 KHz
Bit depth : 16 bits
Compression mode : Lossy
Stream size : 184 MiB (3%)
Language : Russian
Default : Yes
Forced : No

Скриншоты

Просьба к переливающим на другие сайты, в оформлении указывайте пожалуйста авторство группы
[60-fps.org].t886.torrent
Торрент: Зарегистрирован [ 2015-07-19 17:42 ] · ADBF61F6478F5FDDF661C4DE1483935E882DE18E

Скачать .torrent

Скачать

15 KB

Статус: проверено
Скачан: 62 раз
Поблагодарили:
Размер: 5,98 GB
 
Похожие Темы
 
Показать сообщения:    

Текущее время: 22-Фев 04:37

Часовой пояс: UTC + 3


Вы не можете начинать темы
Вы не можете отвечать на сообщения
Вы не можете редактировать свои сообщения
Вы не можете удалять свои сообщения
Вы не можете голосовать в опросах
Вы не можете прикреплять файлы к сообщениям
Вы можете скачивать файлы