[Цитировать]
Kryl

Хищник

Хищник / Predator -Название: Хищник
Оригинальное название: Predator
Год выпуска: 1987
Страна: США
Продолжительность: 01:46:34
Перевод: Дубляж - [Лицензия]
Субтитры: русские (Полные), английские (Полные)-Режиссер: Джон МакТирнан-В ролях: Арнольд Шварценеггер (Dutch), Карл Уэзерс (Dillon), Эльпидия Каррильо (Anna), Билл Дьюк (Mac), Джесси Вентура (Blain), Сонни Лэндэм (Billy), Ричард Чавес (Poncho), Р.Г. Армстронг (Gen. Phillips), Шейн Блэк (Hawkins), Кевин Питер Холл (The Predator / Helicopter Pilot), Стив Бойум (Hostage Executed by the Russian, в титрах не указан), Уилльям Х. Бертон мл. (Guerilla Soldier Shot Down from Tree, в титрах не указан)-Описание:
Американский вертолет был сбит партизанами в Южной Америке. Оставшийся в живых экипаж находится в плену. Центральное разведывательное управление США бросает свои лучшие силы для освобождения американских граждан.
Элитная группа спецназа во главе с Датчем была заброшена в южноамериканские джунгли.-Рейтинг:

MPAA: R - Лицам до 17 лет обязательно присутствие взрослого-Качество: BDRip-AVC 60fps
Формат: MKV
Видео: AVC, 1024x576 (16:9), 4665 kbps, 59,940 fps, 0,132 bpp
Аудио: русский / AC3 / 5.1 / 48 kHz / 640 kbps / 16 bit
Навигация по главам: есть- -

ОтчетМедиаИнфо

General
Unique ID : 240842324792965669494856325232998064491 (0xB5308B65A09C963091FCD6919D25A16B)
Format : Matroska
Format version : Version 4 / Version 2
File size : 3.95 GiB
Duration : 1h 46mn
Overall bit rate : 5 303 Kbps
Movie name : Tiberiumsun69
Encoded date : UTC 2015-11-10 20:05:42
Writing application : mkvmerge v8.3.0 ('Over the Horizon') 64bit
Writing library : libebml v1.3.1 + libmatroska v1.4.2
Attachment : Yes
Video
ID : 1
Format : AVC
Format/Info : Advanced Video Codec
Format profile : High@L4.1
Format settings, CABAC : Yes
Format settings, ReFrames : 4 frames
Codec ID : V_MPEG4/ISO/AVC
Duration : 1h 46mn
Bit rate : 4 665 Kbps
Width : 1 024 pixels
Height : 576 pixels
Display aspect ratio : 16:9
Frame rate : 59.940 fps
Color space : YUV
Chroma subsampling : 4:2:0
Bit depth : 8 bits
Scan type : Progressive
Bits/(Pixel*Frame) : 0.132
Stream size : 3.39 GiB (86%)
Title : Tiberiumsun69
Writing library : x264 core 146 r2538 121396c
Encoding settings : cabac=1 / ref=3 / deblock=1:0:0 / analyse=0x3:0x113 / me=umh / subme=9 / psy=1 / psy_rd=1.00:0.10 / mixed_ref=1 / me_range=32 / chroma_me=1 / trellis=2 / 8x8dct=1 / cqm=0 / deadzone=21,11 / fast_pskip=0 / chroma_qp_offset=-3 / threads=12 / lookahead_threads=3 / sliced_threads=0 / nr=0 / decimate=1 / interlaced=0 / bluray_compat=0 / constrained_intra=0 / bframes=16 / b_pyramid=2 / b_adapt=2 / b_bias=0 / direct=3 / weightb=1 / open_gop=0 / weightp=2 / keyint=600 / keyint_min=59 / scenecut=40 / intra_refresh=0 / rc_lookahead=40 / rc=2pass / mbtree=0 / bitrate=4665 / ratetol=1.0 / qcomp=0.60 / qpmin=0 / qpmax=69 / qpstep=4 / cplxblur=20.0 / qblur=0.5 / vbv_maxrate=14000 / vbv_bufsize=14000 / nal_hrd=none / filler=0 / ip_ratio=1.40 / pb_ratio=1.30 / aq=1:1.00
Language : English
Default : Yes
Forced : No
Audio
ID : 2
Format : AC-3
Format/Info : Audio Coding 3
Mode extension : CM (complete main)
Codec ID : A_AC3
Duration : 1h 46mn
Bit rate mode : Constant
Bit rate : 640 Kbps
Channel(s) : 6 channels
Channel positions : Front: L C R, Side: L R, LFE
Sampling rate : 48.0 KHz
Bit depth : 16 bits
Compression mode : Lossy
Delay relative to video : 24ms
Stream size : 488 MiB (12%)
Title : Дубляж
Language : Russian
Default : No
Forced : No
Text #1
ID : 3
Format : UTF-8
Codec ID : S_TEXT/UTF8
Codec ID/Info : UTF-8 Plain Text
Title : Полные
Language : Russian
Default : No
Forced : No
Text #2
ID : 4
Format : UTF-8
Codec ID : S_TEXT/UTF8
Codec ID/Info : UTF-8 Plain Text
Title : Полные
Language : English
Default : No
Forced : No
Menu
00:00:00.000 : :Chapter 01
00:04:04.284 : :Chapter 02
00:06:29.639 : :Chapter 03
00:10:32.464 : :Chapter 04
00:18:21.183 : :Chapter 05
00:20:21.553 : :Chapter 06
00:27:52.337 : :Chapter 07
00:31:04.279 : :Chapter 08
00:34:53.716 : :Chapter 09
00:37:49.600 : :Chapter 10
00:41:00.833 : :Chapter 11
00:46:33.373 : :Chapter 12
00:53:08.685 : :Chapter 13
01:01:37.402 : :Chapter 14
01:04:08.761 : :Chapter 15
01:08:09.919 : :Chapter 16
01:14:10.362 : :Chapter 17
01:15:50.212 : :Chapter 18
01:18:27.369 : :Chapter 19
01:20:55.015 : :Chapter 20
01:25:09.270 : :Chapter 21
01:34:31.832 : :Chapter 22
01:35:49.118 : :Chapter 23
01:39:58.659 : :Chapter 24
01:42:56.170 : :Chapter 25

Скриншоты

Хищник 2

-Название: Хищник 2
Оригинальное название: Predator 2
Год выпуска: 1990
Страна: США
Жанр: фантастика, боевик, триллер
Продолжительность: 01:48:00
Перевод: Дубляж - [Лицензия]
Субтитры: русские (Форсированные), русские (Полные), английские (Полные)-Режиссер: Стивен Хопкинс-В ролях: Дэнни Гловер (Lieutenant Mike Harrigan), Гэри Бьюзи (Peter Keyes), Рубен Бладес (Danny Archuleta), Мария Кончита Алонсо (Leona Cantrell), Билл Пэкстон (Jerry Lambert), Роберт Дави (Captain Phil Heinemann), Кевин Питер Холл (The Predator), Адам Болдуин (Garber), Кент МакКорд (Captain B. Pilgrim), Мортон Дауни мл. (Tony Pope), Кэлвин Локхарт (King Willie), Стив Кэхэн (Sergeant)-Описание:
Харриган - крутой полицейский отдела по борьбе с наркотиками полиции Лос-Анджелеса. Ему поручено расследование серии убийств крупных криминальных авторитетов города. Все убийства совершены в извращенной форме и пахнут неприкрытым садизмом. После проведения экспертиз и расследований становится ясно, что убийство - дело рук существа, не имеющего ничего общего с человеком.
Землю опять посетил межпланетный охотник, но ему придется столкнуться с существом еще более опасным, чем он сам - с человеком. Харриган выслеживает охотника, постепенно сам становясь охотником. Один на один, как настоящий воин, он ведет бескомпромиссную битву за сохранение чести и права человека не быть существом, на которое можно охотиться.-Рейтинг:

MPAA: R - Лицам до 17 лет обязательно присутствие взрослого-Качество: BDRip-AVC 60fps
Формат: MKV
Видео: AVC, 1024x552 (1.855), 4595 kbps, 59,940 fps, 0,136 bpp
Аудио: русский / AC3 / 5.1 / 48 kHz / 640 kbps / 16 bit
Навигация по главам: есть- -

ОтчетМедиаИнфо

General
Unique ID : 252504309676369173275313160559708020961 (0xBDF68FA4DB2A722AA3EE421BE29B20E1)
Format : Matroska
Format version : Version 4 / Version 2
File size : 3.95 GiB
Duration : 1h 48mn
Overall bit rate : 5 239 Kbps
Movie name : Tiberiumsun69
Encoded date : UTC 2015-11-10 20:12:54
Writing application : mkvmerge v8.3.0 ('Over the Horizon') 64bit
Writing library : libebml v1.3.1 + libmatroska v1.4.2
Attachment : Yes / Yes
Video
ID : 1
Format : AVC
Format/Info : Advanced Video Codec
Format profile : High@L4.1
Format settings, CABAC : Yes
Format settings, ReFrames : 4 frames
Codec ID : V_MPEG4/ISO/AVC
Duration : 1h 48mn
Bit rate : 4 595 Kbps
Width : 1 024 pixels
Height : 552 pixels
Display aspect ratio : 1.855
Frame rate : 59.940 fps
Color space : YUV
Chroma subsampling : 4:2:0
Bit depth : 8 bits
Scan type : Progressive
Bits/(Pixel*Frame) : 0.136
Stream size : 3.39 GiB (86%)
Title : Tiberiumsun69
Writing library : x264 core 146 r2538 121396c
Encoding settings : cabac=1 / ref=3 / deblock=1:0:0 / analyse=0x3:0x113 / me=umh / subme=9 / psy=1 / psy_rd=1.00:0.10 / mixed_ref=1 / me_range=32 / chroma_me=1 / trellis=2 / 8x8dct=1 / cqm=0 / deadzone=21,11 / fast_pskip=0 / chroma_qp_offset=-3 / threads=12 / lookahead_threads=3 / sliced_threads=0 / nr=0 / decimate=1 / interlaced=0 / bluray_compat=0 / constrained_intra=0 / bframes=16 / b_pyramid=2 / b_adapt=2 / b_bias=0 / direct=3 / weightb=1 / open_gop=0 / weightp=2 / keyint=600 / keyint_min=59 / scenecut=40 / intra_refresh=0 / rc_lookahead=40 / rc=2pass / mbtree=0 / bitrate=4595 / ratetol=1.0 / qcomp=0.60 / qpmin=0 / qpmax=69 / qpstep=4 / cplxblur=20.0 / qblur=0.5 / vbv_maxrate=14000 / vbv_bufsize=14000 / nal_hrd=none / filler=0 / ip_ratio=1.40 / pb_ratio=1.30 / aq=1:1.00
Language : English
Default : Yes
Forced : No
Audio
ID : 2
Format : AC-3
Format/Info : Audio Coding 3
Mode extension : CM (complete main)
Codec ID : A_AC3
Duration : 1h 48mn
Bit rate mode : Constant
Bit rate : 640 Kbps
Channel(s) : 6 channels
Channel positions : Front: L C R, Side: L R, LFE
Sampling rate : 48.0 KHz
Bit depth : 16 bits
Compression mode : Lossy
Stream size : 494 MiB (12%)
Title : Дубляж
Language : Russian
Default : No
Forced : No
Text #1
ID : 3
Format : UTF-8
Codec ID : S_TEXT/UTF8
Codec ID/Info : UTF-8 Plain Text
Title : Форсированные
Language : Russian
Default : Yes
Forced : No
Text #2
ID : 4
Format : UTF-8
Codec ID : S_TEXT/UTF8
Codec ID/Info : UTF-8 Plain Text
Title : Полные
Language : Russian
Default : No
Forced : No
Text #3
ID : 5
Format : UTF-8
Codec ID : S_TEXT/UTF8
Codec ID/Info : UTF-8 Plain Text
Title : Полные
Language : English
Default : No
Forced : No
Menu
00:00:00.000 : :Chapter 01
00:03:11.816 : :Chapter 02
00:07:26.319 : :Chapter 03
00:11:40.408 : :Chapter 04
00:14:05.384 : :Chapter 05
00:16:03.336 : :Chapter 06
00:18:57.970 : :Chapter 07
00:22:21.423 : :Chapter 08
00:25:48.755 : :Chapter 09
00:29:03.865 : :Chapter 10
00:30:20.192 : :Chapter 11
00:32:41.209 : :Chapter 12
00:36:39.863 : :Chapter 13
00:41:02.001 : :Chapter 14
00:43:00.411 : :Chapter 15
00:47:17.876 : :Chapter 16
00:51:13.819 : :Chapter 17
00:53:43.051 : :Chapter 18
00:58:14.407 : :Chapter 19
01:01:18.715 : :Chapter 20
01:04:46.590 : :Chapter 21
01:07:36.260 : :Chapter 22
01:15:41.868 : :Chapter 23
01:16:49.520 : :Chapter 24
01:19:23.216 : :Chapter 25
01:22:01.791 : :Chapter 26
01:26:10.912 : :Chapter 27
01:31:32.194 : :Chapter 28
01:33:38.319 : :Chapter 29
01:36:19.439 : :Chapter 30
01:37:54.577 : :Chapter 31
01:41:48.600 : :Chapter 32
01:47:59.764 : :Chapter 33

Скриншоты

Чужой против Хищника (Director's Cut)

-Название: Чужой против Хищника
Оригинальное название: AVP: Alien vs. Predator
Год выпуска: 2004
Страна: США, Великобритания, Чехия, Канада, Германия
Жанр: фантастика, боевик, триллер, приключения
Продолжительность: 01:48:40
Перевод: Дубляж - [Лицензия] + MVO вставки на реж. места
Субтитры: русские (Полные), английские (Полные)-Режиссер: Пол У. С. Андерсон-В ролях: Санаа Лэтэн (Alexa Woods), Рауль Бова (Sebastian de Rosa), Лэнс Хенриксен (Charles Bishop Weyland), Юэн Бремнер (Graeme Miller), Колин Сэлмон (Maxwell Stafford), Томми Флэнаган (Mark Verheiden), Джозеф Рай (Joe Connors), Агат Де Ла Булае (Adele Rousseau), Карстен Норгаард (Rusten Quinn), Сэм Тротон (Thomas Parks), Петр Якл (Stone), Павел Бездек (Bass)-Описание:
Наши дни. Группа ученых отправляется в Антарктиду, чтобы отыскать колыбель цивилизации, царившей на Земле многие тысячелетия назад. Под толщей льда они находят пирамиды, в которых обнаруживают человеческие скелеты и следы жизнедеятельности чужих.
Однако они еще не знают, что уже находятся под колпаком у хозяев этого города - хищников, и их дни сочтены. Человеческая приманка поможет хищникам, наконец, завершить войну двух космических цивилизаций...-Рейтинг:

MPAA: PG-13 - Детям до 13 лет просмотр не желателен-Качество: BDRip-AVC 60fps
Формат: MKV
Видео: AVC, 1024x432 (2.35:1), 4000 kbps, 59,940 fps, 0,151 bpp
Аудио: русский / AC3 / 5.1 / 48 kHz / 640 kbps / 16 bit
Навигация по главам: есть- -

ОтчетМедиаИнфо

General
Unique ID : 212212772488905396560858791247188863184 (0x9FA6B17CE18510B68256FD42CC2828D0)
Format : Matroska
Format version : Version 4 / Version 2
File size : 3.52 GiB
Duration : 1h 48mn
Overall bit rate : 4 641 Kbps
Movie name : Tiberiumsun69
Encoded date : UTC 2015-11-11 16:41:12
Writing application : mkvmerge v8.3.0 ('Over the Horizon') 64bit
Writing library : libebml v1.3.1 + libmatroska v1.4.2
Attachment : Yes
Video
ID : 1
Format : AVC
Format/Info : Advanced Video Codec
Format profile : High@L4.1
Format settings, CABAC : Yes
Format settings, ReFrames : 4 frames
Codec ID : V_MPEG4/ISO/AVC
Duration : 1h 48mn
Bit rate : 4 000 Kbps
Width : 1 024 pixels
Height : 432 pixels
Display aspect ratio : 2.35:1
Frame rate : 59.940 fps
Color space : YUV
Chroma subsampling : 4:2:0
Bit depth : 8 bits
Scan type : Progressive
Bits/(Pixel*Frame) : 0.151
Stream size : 2.97 GiB (84%)
Title : Tiberiumsun69
Writing library : x264 core 146 r2538 121396c
Encoding settings : cabac=1 / ref=3 / deblock=1:0:0 / analyse=0x3:0x113 / me=umh / subme=9 / psy=1 / psy_rd=1.00:0.10 / mixed_ref=1 / me_range=32 / chroma_me=1 / trellis=2 / 8x8dct=1 / cqm=0 / deadzone=21,11 / fast_pskip=0 / chroma_qp_offset=-3 / threads=12 / lookahead_threads=3 / sliced_threads=0 / nr=0 / decimate=1 / interlaced=0 / bluray_compat=0 / constrained_intra=0 / bframes=16 / b_pyramid=2 / b_adapt=2 / b_bias=0 / direct=3 / weightb=1 / open_gop=0 / weightp=2 / keyint=600 / keyint_min=59 / scenecut=40 / intra_refresh=0 / rc_lookahead=40 / rc=2pass / mbtree=0 / bitrate=4000 / ratetol=1.0 / qcomp=0.60 / qpmin=0 / qpmax=69 / qpstep=4 / cplxblur=20.0 / qblur=0.5 / vbv_maxrate=14000 / vbv_bufsize=14000 / nal_hrd=none / filler=0 / ip_ratio=1.40 / pb_ratio=1.30 / aq=1:1.00
Language : English
Default : Yes
Forced : No
Audio
ID : 2
Format : AC-3
Format/Info : Audio Coding 3
Mode extension : CM (complete main)
Codec ID : A_AC3
Duration : 1h 48mn
Bit rate mode : Constant
Bit rate : 640 Kbps
Channel(s) : 6 channels
Channel positions : Front: L C R, Side: L R, LFE
Sampling rate : 48.0 KHz
Bit depth : 16 bits
Compression mode : Lossy
Stream size : 497 MiB (14%)
Title : Дубляж + MVO на реж. места
Language : Russian
Default : Yes
Forced : No
Text #1
ID : 3
Format : UTF-8
Codec ID : S_TEXT/UTF8
Codec ID/Info : UTF-8 Plain Text
Title : Полные
Language : Russian
Default : No
Forced : No
Text #2
ID : 4
Format : UTF-8
Codec ID : S_TEXT/UTF8
Codec ID/Info : UTF-8 Plain Text
Title : Полные
Language : English
Default : No
Forced : No
Menu
00:00:00.000 : en:Chapter 1
00:02:18.346 : en:Chapter 2
00:04:06.204 : en:Chapter 3
00:08:36.140 : en:Chapter 4
00:12:59.653 : en:Chapter 5
00:15:41.607 : en:Chapter 6
00:19:06.436 : en:Chapter 7
00:23:22.109 : en:Chapter 8
00:26:21.705 : en:Chapter 9
00:28:43.888 : en:Chapter 10
00:30:39.420 : en:Chapter 11
00:33:35.805 : en:Chapter 12
00:35:48.896 : en:Chapter 13
00:41:39.955 : en:Chapter 14
00:44:34.004 : en:Chapter 15
00:49:33.011 : en:Chapter 16
00:53:54.814 : en:Chapter 17
00:57:45.378 : en:Chapter 18
01:03:10.328 : en:Chapter 19
01:05:25.922 : en:Chapter 20
01:08:36.153 : en:Chapter 21
01:11:59.648 : en:Chapter 22
01:13:36.995 : en:Chapter 23
01:15:41.703 : en:Chapter 24
01:18:50.517 : en:Chapter 25
01:21:48.612 : en:Chapter 26
01:24:44.954 : en:Chapter 27
01:28:21.546 : en:Chapter 28
01:29:41.292 : en:Chapter 29
01:33:16.591 : en:Chapter 30
01:36:01.589 : en:Chapter 31
01:36:35.623 : en:Chapter 32

Скриншоты

Чужие против Хищника: Реквием (Director's Cut)

-Название: Чужие против Хищника: Реквием
Оригинальное название: AVPR: Aliens vs Predator - Requiem
Год выпуска: 2007
Страна: США
Жанр: ужасы, фантастика, боевик, триллер
Продолжительность: 01:41:05
Перевод: Дубляж - [Лицензия] + Форс. Субитры на реж. места
Субтитры: русские (Форсированные), русские (Полные), английские (Полные)-Режиссер: Колин Штраус , Грег Штраус-В ролях: Стивен Паскуале (Dallas), Рейко Эйлсворт (Kelly), Джон Ортис (Morales), Джонни Льюис (Ricky), Эриель Гейд (Molly), Кристен Хагер (Jesse), Сэм Трэммелл (Tim), Роберт Джой (Col. Stevens), Дэвид Петкау (Dale), Том Вудрафф мл. (Alien), Йен Уайт (Predator), Чела Хорсдэл (Darcy)-Описание:
Атакованный «Предалиеном», жутким гибридом Хищника и Чужого, корабль Хищников терпит крушение в лесах, окружающих маленький техасский городок. И пока на сигнал о помощи, посланный в момент падения, спешит подкрепление, Чужие успевают инфицировать половину населения города.-Рейтинг:

MPAA: R - Лицам до 17 лет обязательно присутствие взрослого-Качество: BDRip-AVC 60fps
Формат: MKV
Видео: AVC, 1024x424 (2.40:1), 4000 kbps, 59,940 fps, 0,154 bpp
Аудио: русский / AC3 / 5.1 / 48 kHz / 640 kbps / 16 bit
Навигация по главам: есть- -

ОтчетМедиаИнфо

General
Unique ID : 183558393072514966476026112924148742028 (0x8A180F81EBEC5C9697161B58FF9EB78C)
Format : Matroska
Format version : Version 4 / Version 2
File size : 3.28 GiB
Duration : 1h 41mn
Overall bit rate : 4 641 Kbps
Movie name : Tiberiumsun69
Encoded date : UTC 2015-11-11 15:14:16
Writing application : mkvmerge v8.3.0 ('Over the Horizon') 64bit
Writing library : libebml v1.3.1 + libmatroska v1.4.2
Attachment : Yes
Video
ID : 1
Format : AVC
Format/Info : Advanced Video Codec
Format profile : High@L4.1
Format settings, CABAC : Yes
Format settings, ReFrames : 4 frames
Codec ID : V_MPEG4/ISO/AVC
Duration : 1h 41mn
Bit rate : 4 000 Kbps
Width : 1 024 pixels
Height : 424 pixels
Display aspect ratio : 2.40:1
Frame rate : 59.940 fps
Color space : YUV
Chroma subsampling : 4:2:0
Bit depth : 8 bits
Scan type : Progressive
Bits/(Pixel*Frame) : 0.154
Stream size : 2.76 GiB (84%)
Title : Tiberiumsun69
Writing library : x264 core 146 r2538 121396c
Encoding settings : cabac=1 / ref=3 / deblock=1:0:0 / analyse=0x3:0x113 / me=umh / subme=9 / psy=1 / psy_rd=1.00:0.10 / mixed_ref=1 / me_range=32 / chroma_me=1 / trellis=2 / 8x8dct=1 / cqm=0 / deadzone=21,11 / fast_pskip=0 / chroma_qp_offset=-3 / threads=12 / lookahead_threads=3 / sliced_threads=0 / nr=0 / decimate=1 / interlaced=0 / bluray_compat=0 / constrained_intra=0 / bframes=16 / b_pyramid=2 / b_adapt=2 / b_bias=0 / direct=3 / weightb=1 / open_gop=0 / weightp=2 / keyint=600 / keyint_min=59 / scenecut=40 / intra_refresh=0 / rc_lookahead=40 / rc=2pass / mbtree=0 / bitrate=4000 / ratetol=1.0 / qcomp=0.60 / qpmin=0 / qpmax=69 / qpstep=4 / cplxblur=20.0 / qblur=0.5 / vbv_maxrate=14000 / vbv_bufsize=14000 / nal_hrd=none / filler=0 / ip_ratio=1.40 / pb_ratio=1.30 / aq=1:1.00
Language : English
Default : Yes
Forced : No
Audio
ID : 2
Format : AC-3
Format/Info : Audio Coding 3
Mode extension : CM (complete main)
Codec ID : A_AC3
Duration : 1h 41mn
Bit rate mode : Constant
Bit rate : 640 Kbps
Channel(s) : 6 channels
Channel positions : Front: L C R, Side: L R, LFE
Sampling rate : 48.0 KHz
Bit depth : 16 bits
Compression mode : Lossy
Stream size : 463 MiB (14%)
Title : Дубляж
Language : Russian
Default : Yes
Forced : No
Text #1
ID : 3
Format : UTF-8
Codec ID : S_TEXT/UTF8
Codec ID/Info : UTF-8 Plain Text
Title : Форсированные
Language : Russian
Default : Yes
Forced : No
Text #2
ID : 4
Format : UTF-8
Codec ID : S_TEXT/UTF8
Codec ID/Info : UTF-8 Plain Text
Title : Полные
Language : Russian
Default : No
Forced : No
Text #3
ID : 5
Format : UTF-8
Codec ID : S_TEXT/UTF8
Codec ID/Info : UTF-8 Plain Text
Title : Полные
Language : English
Default : No
Forced : No
Menu
00:00:00.000 : en:Main Titles/Crash Landing
00:03:44.433 : en:Unsuspecting Victims
00:05:57.023 : en:Distress Call
00:06:51.828 : en:Old Friends
00:08:44.190 : en:Pizza Delivery
00:13:27.306 : en:Alien Advance
00:15:19.794 : en:Homecoming
00:19:29.251 : en:Predator Warrior
00:24:27.674 : en:Strange Discoveries
00:29:51.498 : en:The Search
00:33:27.422 : en:Another Victim
00:38:34.270 : en:An Invitation
00:39:59.355 : en:Epic Battle
00:42:41.934 : en:Advancing Terror
00:45:33.564 : en:The Battle Continues
00:50:05.711 : en:Hunting
00:53:40.217 : en:Widening Crisis
00:59:39.910 : en:Preparing For Battle
01:04:57.727 : en:The Enemy Multiplies
01:06:52.759 : en:No Refuge
01:09:24.243 : en:Escape Attempt
01:12:09.742 : en:Choosing Sides
01:16:36.967 : en:Grim Discovery
01:19:14.374 : en:Collateral Damage
01:23:19.661 : en:Dodging Death
01:28:44.194 : en:Annihilation
01:31:31.861 : en:Survival
01:34:05.598 : en:Classified Material/End Titles

Скриншоты

Хищники

-Название: Хищники
Оригинальное название: Predators
Год выпуска: 2010
Страна: США
Жанр: фантастика, боевик, триллер, приключения
Продолжительность: 01:46:53
Перевод: Дубляж - [Лицензия]
Субтитры: русские (Полные), английские (Полные)-Режиссер: Нимрод Антал-В ролях: Эдриан Броуди (Royce), Тофер Грейс (Edwin), Алиси Брага (Isabelle), Уолтон Гоггинс (Stans), Олег Тактаров (Nikolai), Лоренс Фишбёрн (Noland), Дэнни Трехо (Cuchillo), Луис Одзава Чангчьен (Hanzo), Махершала Али (Mombasa), Кэри Джонс (Tracker Predator), Брайан Стил (Berserker Predator / Falconer Predator), Дерек Мирс (Classic Predator)-Описание:
Наемник Ройс невольно вынужден возглавить группу профессионалов, выполняющих загадочную миссию на неизвестной планете. За исключением опального доктора все они - хладнокровные убийцы: наемники, гангстеры, осужденные и участники отрядов смерти - людские «хищники». Но когда их начинает систематически преследовать и истреблять невообразимое чудовище, становится очевидно, что теперь они в роли своих жертв.-Рейтинг:

MPAA: R - Лицам до 17 лет обязательно присутствие взрослого-Качество: BDRip-AVC 60fps
Формат: MKV
Видео: AVC, 1024x432 (2.35:1), 4000 kbps, 59,940 fps, 0,151 bpp
Аудио: русский / AC3 / 5.1 / 48 kHz / 640 kbps / 16 bit
Навигация по главам: есть- -

ОтчетМедиаИнфо

General
Unique ID : 211249346287939614059479361711457374686 (0x9EED24E8A40C8D8F9AE092557D2311DE)
Format : Matroska
Format version : Version 4 / Version 2
File size : 3.47 GiB
Duration : 1h 46mn
Overall bit rate : 4 642 Kbps
Movie name : Tiberiumsun69
Encoded date : UTC 2015-11-11 16:16:36
Writing application : mkvmerge v8.3.0 ('Over the Horizon') 64bit
Writing library : libebml v1.3.1 + libmatroska v1.4.2
Attachment : Yes
Video
ID : 1
Format : AVC
Format/Info : Advanced Video Codec
Format profile : High@L4.1
Format settings, CABAC : Yes
Format settings, ReFrames : 4 frames
Codec ID : V_MPEG4/ISO/AVC
Duration : 1h 46mn
Bit rate : 4 000 Kbps
Width : 1 024 pixels
Height : 432 pixels
Display aspect ratio : 2.35:1
Frame rate : 59.940 fps
Color space : YUV
Chroma subsampling : 4:2:0
Bit depth : 8 bits
Scan type : Progressive
Bits/(Pixel*Frame) : 0.151
Stream size : 2.92 GiB (84%)
Title : Tiberiumsun69
Writing library : x264 core 146 r2538 121396c
Encoding settings : cabac=1 / ref=3 / deblock=1:0:0 / analyse=0x3:0x113 / me=umh / subme=9 / psy=1 / psy_rd=1.00:0.10 / mixed_ref=1 / me_range=32 / chroma_me=1 / trellis=2 / 8x8dct=1 / cqm=0 / deadzone=21,11 / fast_pskip=0 / chroma_qp_offset=-3 / threads=12 / lookahead_threads=3 / sliced_threads=0 / nr=0 / decimate=1 / interlaced=0 / bluray_compat=0 / constrained_intra=0 / bframes=16 / b_pyramid=2 / b_adapt=2 / b_bias=0 / direct=3 / weightb=1 / open_gop=0 / weightp=2 / keyint=600 / keyint_min=59 / scenecut=40 / intra_refresh=0 / rc_lookahead=40 / rc=2pass / mbtree=0 / bitrate=4000 / ratetol=1.0 / qcomp=0.60 / qpmin=0 / qpmax=69 / qpstep=4 / cplxblur=20.0 / qblur=0.5 / vbv_maxrate=14000 / vbv_bufsize=14000 / nal_hrd=none / filler=0 / ip_ratio=1.40 / pb_ratio=1.30 / aq=1:1.00
Language : English
Default : Yes
Forced : No
Audio
ID : 2
Format : AC-3
Format/Info : Audio Coding 3
Mode extension : CM (complete main)
Codec ID : A_AC3
Duration : 1h 46mn
Bit rate mode : Constant
Bit rate : 640 Kbps
Channel(s) : 6 channels
Channel positions : Front: L C R, Side: L R, LFE
Sampling rate : 48.0 KHz
Bit depth : 16 bits
Compression mode : Lossy
Stream size : 489 MiB (14%)
Title : Дубляж
Language : Russian
Default : Yes
Forced : No
Text #1
ID : 3
Format : UTF-8
Codec ID : S_TEXT/UTF8
Codec ID/Info : UTF-8 Plain Text
Title : Полные
Language : Russian
Default : No
Forced : No
Text #2
ID : 4
Format : UTF-8
Codec ID : S_TEXT/UTF8
Codec ID/Info : UTF-8 Plain Text
Title : Полные
Language : English
Default : No
Forced : No
Menu
00:00:00.000 : en:00:00:00.000
00:05:27.035 : en:00:05:27.035
00:07:57.394 : en:00:07:57.394
00:13:33.521 : en:00:13:33.521
00:17:26.587 : en:00:17:26.587
00:20:02.410 : en:00:20:02.410
00:23:46.300 : en:00:23:46.300
00:26:19.119 : en:00:26:19.119
00:31:34.518 : en:00:31:34.518
00:34:56.511 : en:00:34:56.511
00:38:24.719 : en:00:38:24.719
00:41:57.056 : en:00:41:57.056
00:46:12.979 : en:00:46:12.979
00:49:57.786 : en:00:49:57.786
00:53:27.955 : en:00:53:27.955
00:57:43.126 : en:00:57:43.126
01:02:11.853 : en:01:02:11.853
01:05:48.903 : en:01:05:48.903
01:09:38.758 : en:01:09:38.758
01:14:16.994 : en:01:14:16.994
01:16:25.539 : en:01:16:25.539
01:19:26.929 : en:01:19:26.929
01:21:34.473 : en:01:21:34.473
01:23:51.902 : en:01:23:51.902
01:27:33.707 : en:01:27:33.707
01:30:48.234 : en:01:30:48.234
01:34:12.564 : en:01:34:12.564
01:41:17.697 : en:01:41:17.697

Скриншоты



Последний раз редактировалось: Kryl (2015-11-21 21:59), всего редактировалось 2 раз(а)

[Цитировать]
burt71

no English audio?

[Цитировать]
Kryl

4516no English audio?
Unfortunately the English audio track no :ac:
since the release of our group .
 
Показать сообщения:    

Текущее время: 08-Дек 19:02

Часовой пояс: UTC + 3


Вы не можете начинать темы
Вы не можете отвечать на сообщения
Вы не можете редактировать свои сообщения
Вы не можете удалять свои сообщения
Вы не можете голосовать в опросах
Вы не можете прикреплять файлы к сообщениям
Вы не можете скачивать файлы