Агент Ева / Ava (2020) BDRip 1080p | 60 fps Пятый элемент / The Fifth Element (1997) BDRip 1080p | 60 fps Властелин колец: Трилогия / The Lord of the Rings: Trilogy (2001-2003) BDRip-AVC | Extended Cut | 60 fps Форпост / The Outpost (2020) BDRip 1080p | 60 fps Вивариум / Vivarium (2019) BDRip 720p | 60 fps Ультрафиолет / Ultraviolet (2006) BDRip 1080p | 60 fps Поезд смерти / D-Railed (2018) BDRip 1080p | 60 fps Охота / The Hunt (2020) BDRip 1080p | 60 fps
  1. Longevity:
    6 years 5 months
    Posts:
    2414
    Gender:
    Male
    «Sometimes life gives you the finger and sometimes it gives you...»- Информация
    Название: Хешер
    Оригинальное название: Hesher
    Год выхода: 2010
    Жанр: Драма
    Режиссер: Спенсер Сассер
    Сценарий: Спенсер Сассер, Дэвид Мишо, Брайан Чарльз Фрэнк
    Продюсер: Джонни Лин, Натали Портман, Скотт Прайсэнд
    В ролях: Джозеф Гордон-Левитт, Натали Портман, Девин Брошу, Рэйн Уилсон, Пайпер Лори, Брендан Йен Хилл, Джон Кэрролл Линч, Моника Стэггс, Мэри Элизабет Баррет, Одри Василевски
    --Сюжет:
    Хешер — одиночка. Он ненавидит мир и всех, кто в нем живет. Он ходит с давно немытыми волосами и самодельными татуировками, которые украшают его тело. Он плохо питается и курит много сигарет. Он любит огонь и часто поджигает им различные предметы. Он мирно жил в своем фургоне до того момента, когда встретил Ти Джея…- Страна: США
    Продолжительность: 01:46:03

    Файл
    Кодек: MPEG4/ISO/AVC/H.264
    Формат: MKV
    Качество: BDRip 1080p | 60 fps
    Видео: 1920 x 784 (2.449) | 59.940 fps | 25.0 Мбит/сек
    Аудио 1: DTS-HD MA | 7.1 | 48 kHz | 4914 kbps | 24 bit | Одноголосый, закадровый - М.Яроцкий |
    Аудио 2: DTS-HD MA | 7.1 | 48 kHz | 4911 kbps | 24 bit | Двухголосый закадровый - Ozz.TV |
    Аудио 3: AC3 | 2.0 | 48 kHz | 192 kbps | 16 bit | Многоголосый закадровый - Канал Кинопоказ |
    Аудио 4: AC3 | 2.0 | 48 kHz | 256 kbps | 16 bit | Одноголосый закадровый - Ursulyak |
    Аудио 5: DTS-HD MA | 7.1 | 48 kHz | 4897 kbps | 24 bit | ENG |
    Субтитры: Русские, Eng

    MedifInfo

    Видео
    Идентификатор : 1
    Формат : AVC
    Формат/Информация : Advanced Video Codec
    Профиль формата : [email protected]
    Параметр CABAC формата : Да
    Параметр ReFrames формата : 5 кадров
    Идентификатор кодека : V_MPEG4/ISO/AVC
    Продолжительность : 1 ч. 46 м.
    Номинальный битрейт : 25,0 Мбит/сек
    Ширина : 1920 пикселей
    Высота : 784 пикселя
    Соотношение сторон : 2,40:1
    Режим частоты кадров : Постоянный
    Частота кадров : 59,880 кадров/сек
    Частота кадров в оригинале : 59,940 кадров/сек
    Цветовое пространство : YUV
    Субдискретизация насыщенности : 4:2:0
    Битовая глубина : 8 бит
    Тип развёртки : Прогрессивная
    Бит/(Пиксели*Кадры) : 0.277
    Заголовок : www.60-fps.org
    Библиотека кодирования : x264 core 148 r2638 7599210
    Настройки программы : cabac=1 / ref=5 / deblock=1:-3:-3 / analyse=0x3:0x113 / me=umh / subme=8 / psy=1 / psy_rd=1.00:0.25 / mixed_ref=1 / me_range=32 / chroma_me=1 / trellis=1 / 8x8dct=1 / cqm=0 / deadzone=6,6 / fast_pskip=1 / chroma_qp_offset=-4 / threads=12 / lookahead_threads=2 / sliced_threads=0 / nr=0 / decimate=0 / interlaced=0 / bluray_compat=0 / constrained_intra=0 / bframes=3 / b_pyramid=2 / b_adapt=2 / b_bias=0 / direct=3 / weightb=1 / open_gop=0 / weightp=2 / keyint=599 / keyint_min=59 / scenecut=40 / intra_refresh=0 / rc_lookahead=50 / rc=2pass / mbtree=1 / bitrate=24999 / ratetol=1.0 / qcomp=0.80 / qpmin=0 / qpmax=69 / qpstep=4 / cplxblur=20.0 / qblur=0.5 / vbv_maxrate=62500 / vbv_bufsize=78125 / nal_hrd=none / filler=0 / ip_ratio=1.10 / aq=1:0.50
    Default : Да
    Forced : Нет
    Аудио #1
    Идентификатор : 2
    Формат : DTS
    Формат/Информация : Digital Theater Systems
    Профиль формата : MA / Core
    Режим : 16
    Параметр Endianness формата : Big
    Идентификатор кодека : A_DTS
    Продолжительность : 1 ч. 46 м.
    Вид битрейта : Переменный
    Битрейт : Неизвестно / 1509 Кбит/сек
    Каналы : 8 каналов / 6 каналов
    Расположение каналов : Front: L C R, Side: L R, Back: L R, LFE / Front: L C R, Side: L R, LFE
    Частота : 48,0 КГц
    Битовая глубина : 24 бит
    Метод сжатия : Без потерь / Lossy
    Заголовок : Одноголосый, закадровый - М.Яроцкий
    Язык : Russian
    Default : Да
    Forced : Нет
    Аудио #2
    Идентификатор : 3
    Формат : DTS
    Формат/Информация : Digital Theater Systems
    Профиль формата : MA / Core
    Режим : 16
    Параметр Endianness формата : Big
    Идентификатор кодека : A_DTS
    Продолжительность : 1 ч. 46 м.
    Вид битрейта : Переменный
    Битрейт : Неизвестно / 1509 Кбит/сек
    Каналы : 8 каналов / 6 каналов
    Расположение каналов : Front: L C R, Side: L R, Back: L R, LFE / Front: L C R, Side: L R, LFE
    Частота : 48,0 КГц
    Битовая глубина : 24 бит
    Метод сжатия : Без потерь / Lossy
    Заголовок : Двухголосый закадровый - Ozz.TV
    Язык : Russian
    Default : Нет
    Forced : Нет
    Аудио #3
    Идентификатор : 4
    Формат : AC-3
    Формат/Информация : Audio Coding 3
    Расширение режима : CM (complete main)
    Параметр Endianness формата : Big
    Идентификатор кодека : A_AC3
    Продолжительность : 1 ч. 46 м.
    Вид битрейта : Постоянный
    Битрейт : 192 Кбит/сек
    Каналы : 2 канала
    Расположение каналов : Front: L R
    Частота : 48,0 КГц
    Битовая глубина : 16 бит
    Метод сжатия : С потерями
    Размер потока : 146 Мбайт (0%)
    Заголовок : Многоголосый закадровый - Канал Кинопоказ
    Язык : Russian
    Default : Нет
    Forced : Нет
    Аудио #4
    Идентификатор : 5
    Формат : AC-3
    Формат/Информация : Audio Coding 3
    Расширение режима : CM (complete main)
    Параметр Endianness формата : Big
    Идентификатор кодека : A_AC3
    Продолжительность : 1 ч. 46 м.
    Вид битрейта : Постоянный
    Битрейт : 256 Кбит/сек
    Каналы : 2 канала
    Расположение каналов : Front: L R
    Частота : 48,0 КГц
    Битовая глубина : 16 бит
    Метод сжатия : С потерями
    Размер потока : 194 Мбайт (1%)
    Заголовок : Одноголосый закадровый - Ursulyak
    Язык : Ukrainian
    Default : Нет
    Forced : Нет
    Аудио #5
    Идентификатор : 6
    Формат : DTS
    Формат/Информация : Digital Theater Systems
    Профиль формата : MA / Core
    Режим : 16
    Параметр Endianness формата : Big
    Идентификатор кодека : A_DTS
    Продолжительность : 1 ч. 46 м.
    Вид битрейта : Переменный
    Битрейт : Неизвестно / 1509 Кбит/сек
    Каналы : 8 каналов / 6 каналов
    Расположение каналов : Front: L C R, Side: L R, Back: L R, LFE / Front: L C R, Side: L R, LFE
    Частота : 48,0 КГц
    Битовая глубина : 24 бит
    Метод сжатия : Без потерь / Lossy
    Заголовок : Eng
    Язык : English
    Default : Нет
    Forced : Нет
    Текст #1
    Идентификатор : 7
    Формат : UTF-8
    Идентификатор кодека : S_TEXT/UTF8
    Идентификатор кодека/Информация : UTF-8 Plain Text
    Язык : Russian
    Default : Нет
    Forced : Нет
    Текст #2
    Идентификатор : 8
    Формат : UTF-8
    Идентификатор кодека : S_TEXT/UTF8
    Идентификатор кодека/Информация : UTF-8 Plain Text
    Язык : English
    Default : Нет
    Forced : Нет
    Меню
    00:00:00.000 : en:
    00:09:14.220 : en:
    00:13:58.712 : en:
    00:19:38.635 : en:
    00:25:51.883 : en:
    00:36:29.520 : en:
    00:42:32.841 : en:
    00:47:50.576 : en:
    00:55:56.519 : en:
    01:00:16.946 : en:
    01:07:08.774 : en:
    01:15:06.001 : en:
    01:20:21.024 : en:
    01:25:57.402 : en:
    01:30:11.239 : en:
    01:38:32.615 : en:

    Release was prepared by 60-fps.org

  2. Longevity:
    4 years 6 months
    Posts:
    1577
    Gender:
    Male
    не могу докачать... Плачу
    20-Jan-2017 20:13 (after 4 days)
  3. Longevity:
    3 years 6 months
    Posts:
    1
    Gender:
    Unknown
    не могу докачать...
    01-Nov-2017 23:41 (after 9 months 12 days)


You cannot post new topics in this forum
You cannot reply to topics in this forum
You cannot edit your posts in this forum
You cannot delete your posts in this forum
You cannot vote in polls in this forum
You cannot attach files in this forum
You cannot download files in this forum