[Цитировать]
Kryl

«Хэллоуин» — популярный в 1980-х годах киносериал фильмов ужасов. Создателями сериала являются американский режиссёр Джон Карпентер и американский продюсер сирийского происхождения Мустафа Аккад. Роль главного героя фильмов — Майкла Майерса — хладнокровного убийцы в маске, исполнило множество актёров.

Хэллоуин / Halloween (1978)

«The Trick Is To Stay Alive!»- Информация
Название: Хэллоуин
Оригинальное название: Halloween
Год выхода: 1978
Жанр: ужасы, триллер
Режиссер: Джон Карпентер
Сценарий: Джон Карпентер, Дебра Хилл
Продюсер: Дебра Хилл, Кул Ласби, Ирвин Ябланс
В ролях: Дональд Плезенс, Джейми Ли Кёртис, Нэнси Кайс, П.Дж. Соулз, Чарльз Сайферс, Кайл Ричардс, Брайан Эндрюс, Джон Майкл Грэхэм, Нэнси Стивенс, Артур Мэлет
--Сюжет:
Убийца-психопат Майкл Майерс, будучи ребенком, совершил убийство собственной сестры в Хэллоуин — День Всех Святых.
15 лет спустя маньяк-убийца снова взялся за старое и терроризирует небольшой городок. Он сбежал из приюта для психически ненормальных, чтобы снова наносить свои смертельные удары в Хэллоуин.
-- - Страна: США
Продолжительность: 01:30:56

Файл
Кодек: MPEG4/ISO/AVC H.264
Формат: MKV
Качество: BDRip-AVC 60 fps
Видео: 1024x432 (2.35:1) | 59,940 fps | 4.0 Мбит/сек
Аудио: AC3 | 5.1 | 48 kHz | 448 kbps | 16 bit | Профессиональный (многоголосый) |
Субтитры: русские (Полные), английские (Полные)

MedifInfo

Video
ID : 1
Format : AVC
Format/Info : Advanced Video Codec
Format profile : High@L4.1
Format settings, CABAC : Yes
Format settings, ReFrames : 4 frames
Codec ID : V_MPEG4/ISO/AVC
Duration : 1h 30mn
Bit rate : 4 000 Kbps
Width : 1 024 pixels
Height : 432 pixels
Display aspect ratio : 2.35:1
Frame rate : 59.940 fps
Color space : YUV
Chroma subsampling : 4:2:0
Bit depth : 8 bits
Scan type : Progressive
Bits/(Pixel*Frame) : 0.151
Stream size : 2.49 GiB (88%)
Title : Tiberiumsun69
Writing library : x264 core 146 r2538 121396c
Encoding settings : cabac=1 / ref=3 / deblock=1:0:0 / analyse=0x3:0x113 / me=umh / subme=9 / psy=1 / psy_rd=1.00:0.10 / mixed_ref=1 / me_range=32 / chroma_me=1 / trellis=2 / 8x8dct=1 / cqm=0 / deadzone=21,11 / fast_pskip=0 / chroma_qp_offset=-3 / threads=12 / lookahead_threads=3 / sliced_threads=0 / nr=0 / decimate=1 / interlaced=0 / bluray_compat=0 / constrained_intra=0 / bframes=16 / b_pyramid=2 / b_adapt=2 / b_bias=0 / direct=3 / weightb=1 / open_gop=0 / weightp=2 / keyint=600 / keyint_min=59 / scenecut=40 / intra_refresh=0 / rc_lookahead=40 / rc=2pass / mbtree=0 / bitrate=4000 / ratetol=1.0 / qcomp=0.60 / qpmin=0 / qpmax=69 / qpstep=4 / cplxblur=20.0 / qblur=0.5 / vbv_maxrate=14000 / vbv_bufsize=14000 / nal_hrd=none / filler=0 / ip_ratio=1.40 / pb_ratio=1.30 / aq=1:1.00
Language : English
Default : Yes
Forced : No
Audio
ID : 2
Format : AC-3
Format/Info : Audio Coding 3
Mode extension : CM (complete main)
Codec ID : A_AC3
Duration : 1h 30mn
Bit rate mode : Constant
Bit rate : 448 Kbps
Channel(s) : 6 channels
Channel positions : Front: L C R, Side: L R, LFE
Sampling rate : 48.0 KHz
Bit depth : 16 bits
Compression mode : Lossy
Stream size : 291 MiB (10%)
Title : Многоголосый, закадровый Total DVD
Language : Russian
Default : Yes
Forced : No
Text #1
ID : 3
Format : UTF-8
Codec ID : S_TEXT/UTF8
Codec ID/Info : UTF-8 Plain Text
Title : Полные
Language : Russian
Default : No
Forced : No
Text #2
ID : 4
Format : UTF-8
Codec ID : S_TEXT/UTF8
Codec ID/Info : UTF-8 Plain Text
Title : Полные
Language : English
Default : No
Forced : No
Menu
00:00:00.000 : en:Main Titles
00:02:05.750 : en:All Hallows Eve, 1963
00:07:00.545 : en:Hell Night
00:11:09.210 : en:On a Crisp October Morning...
00:14:29.869 : en:Fate
00:18:35.739 : en:Don't Talk to Strangers
00:23:02.881 : en:Trick or Treat
00:28:05.975 : en:Day of the Dead
00:31:00.942 : en:Autumn Twilight
00:34:45.124 : en:Haunted House
00:39:58.813 : en:The Bogeyman
00:44:05.059 : en:Things That Go Bump in the Night
00:49:04.608 : en:Samhain
00:54:15.752 : en:Pranks
00:58:30.757 : en:Halloween Partying
01:04:21.941 : en:Masquerade
01:08:49.667 : en:House of Mystery
01:14:21.915 : en:Decorations
01:18:32.833 : en:Danse Macabre
01:25:01.054 : en:"It Was the Bogeyman"
01:28:42.150 : en:End Credits

Хэллоуин 2 / Halloween II (1981)

«Смертельный маскарад в разгаре»- Информация
Название: Хэллоуин 2
Оригинальное название: Halloween II
Год выхода: 1981
Жанр: ужасы, триллер
Режиссер: Рик Розенталь
Сценарий: Джон Карпентер, Дебра Хилл
Продюсер: Джон Карпентер, Дебра Хилл, Бэрри Бернарди
В ролях: Джейми Ли Кёртис, Дональд Плезенс, Чарльз Сайферс, Джефри Крамер, Лэнс Гест, Памела Сьюзан Шуп, Хантер Фон Лир, Дик Уорлок, Лео Росси, Глория Гиффорд
--Сюжет:
31 октября 1975 года. По городу проносится волна кровавых убийств. Жители шепотом произносят имя Майкла Майерса, кровавого маньяка, который вернулся как раз на Хэллоуин. Его прежняя жертва, Лори Строуд, выжила, и он вернулся, чтобы закончить начатое. На сей раз преследования Лори приводят его в больницу, и в ее темных коридорах хладнокровный неубиваемый психопат находит свои жертвы.- - Страна: США
Продолжительность: 01:32:31

Файл
Кодек: MPEG4/ISO/AVC H.264
Формат: MKV
Качество: BDRip-AVC 60 fps
Видео: 1024x432 (2.35:1) | 59,940 fps | 4.0 Мбит/сек
Аудио: AC3 | 5.1 | 48 kHz | 640 kbps | 16 bit | Профессиональный (многоголосый) |
Субтитры: английские (Полные)

MedifInfo

Video
ID : 1
Format : AVC
Format/Info : Advanced Video Codec
Format profile : High@L4.1
Format settings, CABAC : Yes
Format settings, ReFrames : 4 frames
Codec ID : V_MPEG4/ISO/AVC
Duration : 1h 32mn
Bit rate : 4 000 Kbps
Width : 1 024 pixels
Height : 432 pixels
Display aspect ratio : 2.35:1
Frame rate : 59.940 fps
Color space : YUV
Chroma subsampling : 4:2:0
Bit depth : 8 bits
Scan type : Progressive
Bits/(Pixel*Frame) : 0.151
Stream size : 2.52 GiB (84%)
Title : Tiberiumsun69
Writing library : x264 core 146 r2538 121396c
Encoding settings : cabac=1 / ref=3 / deblock=1:0:0 / analyse=0x3:0x113 / me=umh / subme=9 / psy=1 / psy_rd=1.00:0.10 / mixed_ref=1 / me_range=32 / chroma_me=1 / trellis=2 / 8x8dct=1 / cqm=0 / deadzone=21,11 / fast_pskip=0 / chroma_qp_offset=-3 / threads=12 / lookahead_threads=3 / sliced_threads=0 / nr=0 / decimate=1 / interlaced=0 / bluray_compat=0 / constrained_intra=0 / bframes=16 / b_pyramid=2 / b_adapt=2 / b_bias=0 / direct=3 / weightb=1 / open_gop=0 / weightp=2 / keyint=600 / keyint_min=59 / scenecut=40 / intra_refresh=0 / rc_lookahead=40 / rc=2pass / mbtree=0 / bitrate=4000 / ratetol=1.0 / qcomp=0.60 / qpmin=0 / qpmax=69 / qpstep=4 / cplxblur=20.0 / qblur=0.5 / vbv_maxrate=14000 / vbv_bufsize=14000 / nal_hrd=none / filler=0 / ip_ratio=1.40 / pb_ratio=1.30 / aq=1:1.00
Language : English
Default : Yes
Forced : No
Audio
ID : 2
Format : AC-3
Format/Info : Audio Coding 3
Mode extension : CM (complete main)
Codec ID : A_AC3
Duration : 1h 32mn
Bit rate mode : Constant
Bit rate : 640 Kbps
Channel(s) : 6 channels
Channel positions : Front: L C R, Side: L R, LFE
Sampling rate : 48.0 KHz
Bit depth : 16 bits
Compression mode : Lossy
Stream size : 424 MiB (14%)
Title : Многоголосый, закадровый
Language : Russian
Default : Yes
Forced : No
Text
ID : 3
Format : UTF-8
Codec ID : S_TEXT/UTF8
Codec ID/Info : UTF-8 Plain Text
Title : Полные
Language : English
Default : No
Forced : No
Menu
00:00:00.000 : en:00:00:00.000
00:04:18.425 : en:00:04:18.425
00:07:17.896 : en:00:07:17.896
00:12:23.993 : en:00:12:23.993
00:17:24.961 : en:00:17:24.961
00:19:59.990 : en:00:19:59.990
00:22:01.987 : en:00:22:01.987
00:26:49.983 : en:00:26:49.983
00:33:20.957 : en:00:33:20.957
00:41:26.984 : en:00:41:26.984
00:44:21.951 : en:00:44:21.951
00:55:02.925 : en:00:55:02.925
00:58:36.638 : en:00:58:36.638
01:03:17.961 : en:01:03:17.961
01:07:35.218 : en:01:07:35.218
01:13:14.932 : en:01:13:14.932
01:25:29.374 : en:01:25:29.374
01:27:55.770 : en:01:27:55.770

Хэллоуин 3: Сезон ведьм / Halloween III: Season of the Witch (1982)

«...and now the earth will run with blood again!»- Информация
Название: Хэллоуин 3: Сезон ведьм
Оригинальное название: Halloween III: Season of the Witch
Год выхода: 1982
Жанр: ужасы, фантастика
Режиссер: Томми Ли Уоллес
Сценарий: Томми Ли Уоллес, Джон Карпентер, Найджел Нил
Продюсер: Джон Карпентер, Дебра Хилл, Бэрри Бернарди
В ролях: Том Аткинс, Стейси Нелкин, Дэн О’Херлихи, Майкл Карри, Ральф Стрейт, Джэдин Барбор, Брэд Шактер, Гэрн Стефенс, Нэнси Кайс, Джонатан Терри
--Сюжет:
Безумный конструктор игрушек решает принести в жертву на Хэллоуин миллионы детей разом и готовит партию масок «Тыквоголового», которые мистическим образом срабатывают в день Праздника Всех Святых.- - Страна: США
Продолжительность: 01:38:03

Файл
Кодек: MPEG4/ISO/AVC H.264
Формат: MKV
Качество: BDRip-AVC 60 fps
Видео: 1024x432 (2.35:1) | 59,940 fps | 4.0 Мбит/сек
Аудио 1: AC3 | 2.0 | 48 kHz | 192 kbps | 16 bit | Андрей Гаврилов |
Аудио 2: AC3 | 2.0 | 48 kHz | 192 kbps | 16 bit | Петр Карцев |
Аудио 3: AC3 | 2.0 | 48 kHz | 192 kbps | 16 bit | Одноголосый, закадровый |
Субтитры: английские (Полные)

MedifInfo

Video
ID : 1
Format : AVC
Format/Info : Advanced Video Codec
Format profile : High@L4.1
Format settings, CABAC : Yes
Format settings, ReFrames : 4 frames
Codec ID : V_MPEG4/ISO/AVC
Duration : 1h 38mn
Bit rate : 4 000 Kbps
Width : 1 024 pixels
Height : 432 pixels
Display aspect ratio : 2.35:1
Frame rate : 59.940 fps
Color space : YUV
Chroma subsampling : 4:2:0
Bit depth : 8 bits
Scan type : Progressive
Bits/(Pixel*Frame) : 0.151
Stream size : 2.68 GiB (85%)
Writing library : x264 core 146 r2538 121396c
Encoding settings : cabac=1 / ref=3 / deblock=1:0:0 / analyse=0x3:0x113 / me=umh / subme=9 / psy=1 / psy_rd=1.00:0.10 / mixed_ref=1 / me_range=32 / chroma_me=1 / trellis=2 / 8x8dct=1 / cqm=0 / deadzone=21,11 / fast_pskip=0 / chroma_qp_offset=-3 / threads=12 / lookahead_threads=3 / sliced_threads=0 / nr=0 / decimate=1 / interlaced=0 / bluray_compat=0 / constrained_intra=0 / bframes=16 / b_pyramid=2 / b_adapt=2 / b_bias=0 / direct=3 / weightb=1 / open_gop=0 / weightp=2 / keyint=600 / keyint_min=59 / scenecut=40 / intra_refresh=0 / rc_lookahead=40 / rc=2pass / mbtree=0 / bitrate=4000 / ratetol=1.0 / qcomp=0.60 / qpmin=0 / qpmax=69 / qpstep=4 / cplxblur=20.0 / qblur=0.5 / vbv_maxrate=14000 / vbv_bufsize=14000 / nal_hrd=none / filler=0 / ip_ratio=1.40 / pb_ratio=1.30 / aq=1:1.00
Language : English
Default : Yes
Forced : No
Audio #1
ID : 2
Format : AC-3
Format/Info : Audio Coding 3
Mode extension : CM (complete main)
Codec ID : A_AC3
Duration : 1h 38mn
Bit rate mode : Constant
Bit rate : 192 Kbps
Channel(s) : 2 channels
Channel positions : Front: L R
Sampling rate : 48.0 KHz
Bit depth : 16 bits
Compression mode : Lossy
Stream size : 135 MiB (4%)
Title : Одноголосый, закадровый Андрей Гаврилов
Language : Russian
Default : Yes
Forced : No
Audio #2
ID : 3
Format : AC-3
Format/Info : Audio Coding 3
Mode extension : CM (complete main)
Codec ID : A_AC3
Duration : 1h 38mn
Bit rate mode : Constant
Bit rate : 192 Kbps
Channel(s) : 2 channels
Channel positions : Front: L R
Sampling rate : 48.0 KHz
Bit depth : 16 bits
Compression mode : Lossy
Stream size : 135 MiB (4%)
Title : Одноголосый, закадровый Петр Карцев
Language : Russian
Default : No
Forced : No
Audio #3
ID : 4
Format : AC-3
Format/Info : Audio Coding 3
Mode extension : CM (complete main)
Codec ID : A_AC3
Duration : 1h 38mn
Bit rate mode : Constant
Bit rate : 192 Kbps
Channel(s) : 2 channels
Channel positions : Front: L R
Sampling rate : 48.0 KHz
Bit depth : 16 bits
Compression mode : Lossy
Stream size : 135 MiB (4%)
Title : Одноголосый, закадровый
Language : Russian
Default : No
Forced : No
Text
ID : 5
Format : UTF-8
Codec ID : S_TEXT/UTF8
Codec ID/Info : UTF-8 Plain Text
Title : Полные
Language : English
Default : No
Forced : No
Menu
00:00:01.001 : en:00:00:01.001
00:06:27.387 : en:00:06:27.387
00:09:01.166 : en:00:09:01.166
00:16:15.600 : en:00:16:15.600
00:20:48.247 : en:00:20:48.247
00:25:55.554 : en:00:25:55.554
00:31:27.886 : en:00:31:27.886
00:36:25.183 : en:00:36:25.183
00:41:09.467 : en:00:41:09.467
00:45:29.352 : en:00:45:29.352
00:49:39.602 : en:00:49:39.602
00:54:23.260 : en:00:54:23.260
01:03:06.408 : en:01:03:06.408
01:11:12.268 : en:01:11:12.268
01:15:17.513 : en:01:15:17.513
01:21:08.864 : en:01:21:08.864
01:28:22.923 : en:01:28:22.923
01:33:13.213 : en:01:33:13.213

Хэллоуин 4: Возвращение Майкла Майерса / Halloween 4: The Return of Michael Myers (1988)

«It's gonna be one hell of a family reunion!»- Информация
Название: Хэллоуин 4: Возвращение Майкла Майерса
Оригинальное название: Halloween 4: The Return of Michael Myers
Год выхода: 1988
Жанр: ужасы, триллер
Режиссер: Дуайт Х. Литтл
Сценарий: Алан Б. МакЭлрой, Дэнни Липсиус, Ларри Рэттнер
Продюсер: Пол Фриман, Мустафа Аккад, М.Н. Сануси
В ролях: Дональд Плезенс, Элли Корнелл, Даниэль Харрис, Джордж П. Вилбур, Майкл Патаки, Бо Старр, Кэтлин Кинмонт, Саша Дженсон, Джин Росс, Кармен Филпи
--Сюжет:
Черное одеяние, белая мертвенная маска, нечеловеческая сила — это Майкл Майерс! Самый неистребимый монстр всех времен и народов возвращается, совершив побег при транспортировке из одной психиатрической клиники в другую. В ночь кануна всех святых он снова объявляется в родном городе, истребляя всех на своем пути к главной жертве — маленькой племяннице Джеми…- - Страна: США
Продолжительность: 01:28:17

Файл
Кодек: MPEG4/ISO/AVC H.264
Формат: MKV
Качество: BDRip-AVC 60 fps
Видео: 1024x552 (1.855) | 59,940 fps | 5.0 Мбит/сек
Аудио: AC3 | 5.1 | 48 kHz | 448 kbps | 16 bit | Владимир Штайнер |
Субтитры: английские (Полные)

MedifInfo

Video
ID : 1
Format : AVC
Format/Info : Advanced Video Codec
Format profile : High@L4.1
Format settings, CABAC : Yes
Format settings, ReFrames : 4 frames
Codec ID : V_MPEG4/ISO/AVC
Duration : 1h 28mn
Bit rate : 5 000 Kbps
Width : 1 024 pixels
Height : 552 pixels
Display aspect ratio : 1.855
Frame rate : 59.940 fps
Color space : YUV
Chroma subsampling : 4:2:0
Bit depth : 8 bits
Scan type : Progressive
Bits/(Pixel*Frame) : 0.148
Stream size : 3.02 GiB (90%)
Writing library : x264 core 146 r2538 121396c
Encoding settings : cabac=1 / ref=3 / deblock=1:0:0 / analyse=0x3:0x113 / me=umh / subme=9 / psy=1 / psy_rd=1.00:0.10 / mixed_ref=1 / me_range=32 / chroma_me=1 / trellis=2 / 8x8dct=1 / cqm=0 / deadzone=21,11 / fast_pskip=0 / chroma_qp_offset=-3 / threads=12 / lookahead_threads=3 / sliced_threads=0 / nr=0 / decimate=1 / interlaced=0 / bluray_compat=0 / constrained_intra=0 / bframes=16 / b_pyramid=2 / b_adapt=2 / b_bias=0 / direct=3 / weightb=1 / open_gop=0 / weightp=2 / keyint=600 / keyint_min=59 / scenecut=40 / intra_refresh=0 / rc_lookahead=40 / rc=2pass / mbtree=0 / bitrate=5000 / ratetol=1.0 / qcomp=0.60 / qpmin=0 / qpmax=69 / qpstep=4 / cplxblur=20.0 / qblur=0.5 / vbv_maxrate=14000 / vbv_bufsize=14000 / nal_hrd=none / filler=0 / ip_ratio=1.40 / pb_ratio=1.30 / aq=1:1.00
Language : English
Default : Yes
Forced : No
Audio
ID : 2
Format : AC-3
Format/Info : Audio Coding 3
Mode extension : CM (complete main)
Codec ID : A_AC3
Duration : 1h 28mn
Bit rate mode : Constant
Bit rate : 448 Kbps
Channel(s) : 6 channels
Channel positions : Front: L C R, Side: L R, LFE
Sampling rate : 48.0 KHz
Bit depth : 16 bits
Compression mode : Lossy
Stream size : 283 MiB (8%)
Title : Одногоголосый, закадровый Владимир Штейн
Language : Russian
Default : Yes
Forced : No
Text
ID : 3
Format : UTF-8
Codec ID : S_TEXT/UTF8
Codec ID/Info : UTF-8 Plain Text
Title : Полные
Language : English
Default : No
Forced : No
Menu
00:00:00.000 : en:00:00:00.000
00:06:48.908 : en:00:06:48.908
00:11:38.531 : en:00:11:38.531
00:22:43.362 : en:00:22:43.362
00:29:12.501 : en:00:29:12.501
00:34:36.700 : en:00:34:36.700
00:42:46.689 : en:00:42:46.689
00:51:35.926 : en:00:51:35.926
00:57:58.350 : en:00:57:58.350
01:04:42.170 : en:01:04:42.170
01:15:32.737 : en:01:15:32.737
01:24:50.294 : en:01:24:50.294

Хэллоуин 5 / Halloween 5 (1989)

«Michael Lives, And This Time They're Ready!»- Информация
Название: Хэллоуин 5
Оригинальное название: Halloween 5
Год выхода: 1989
Жанр: ужасы, триллер
Режиссер: Доминик Отенен-Жирар
Сценарий: Майкл Джейкобс, Доминик Отенен-Жирар
Продюсер: Рэмси Томас, Мустафа Аккад, Рик Натансон
В ролях: Дональд Плезенс, Даниэль Харрис, Элли Корнелл, Бо Старр, Джеффри Лэндмэн, Тамара Глинн, Джонатан Чейпин, Мэттью Уолкер, Венди Каплан, Бетти Карвальо
--Сюжет:
Прошёл год. А это означает, что вновь близится Хэллоуин и снова людям предстоит надевать страшные маски. Джейми, как мы помним, определили в хэддонфилдскую психушку, где она имела астральную связь с маньяком и видела все его действия, а также могла предсказать опасность для людей, находящихся рядом с ним. На дворе Хэллоуин, и Джейми стала проявлять признаки беспокойства, то и дело попадая в состояние трясучки. Девочка права — Майкл вернулся вновь. Вернулся, чтобы снова устроить кровавую резню…- - Страна: США
Продолжительность: 01:37:03

Файл
Кодек: MPEG4/ISO/AVC H.264
Формат: MKV
Качество: BDRip-AVC 60 fps
Видео: 1024x552 (1.855) | 59,940 fps | 5.0 Мбит/сек
Аудио 1: AC3 | 2.0 | 48 kHz | 192 kbps | 16 bit | Вартан Дохалов |
Аудио 2: AC3 | 2.0 | 48 kHz | 192 kbps | 16 bit | Андрей Дольский |
Аудио 3: AC3 | 2.0 | 48 kHz | 192 kbps | 16 bit | Одноголосый, закадровый |
Субтитры: английские (Полные)

MedifInfo

Video
ID : 1
Format : AVC
Format/Info : Advanced Video Codec
Format profile : High@L4.1
Format settings, CABAC : Yes
Format settings, ReFrames : 4 frames
Codec ID : V_MPEG4/ISO/AVC
Duration : 1h 37mn
Bit rate : 5 000 Kbps
Width : 1 024 pixels
Height : 552 pixels
Display aspect ratio : 1.855
Frame rate : 59.940 fps
Color space : YUV
Chroma subsampling : 4:2:0
Bit depth : 8 bits
Scan type : Progressive
Bits/(Pixel*Frame) : 0.148
Stream size : 3.31 GiB (88%)
Writing library : x264 core 146 r2538 121396c
Encoding settings : cabac=1 / ref=3 / deblock=1:0:0 / analyse=0x3:0x113 / me=umh / subme=9 / psy=1 / psy_rd=1.00:0.10 / mixed_ref=1 / me_range=32 / chroma_me=1 / trellis=2 / 8x8dct=1 / cqm=0 / deadzone=21,11 / fast_pskip=0 / chroma_qp_offset=-3 / threads=12 / lookahead_threads=3 / sliced_threads=0 / nr=0 / decimate=1 / interlaced=0 / bluray_compat=0 / constrained_intra=0 / bframes=16 / b_pyramid=2 / b_adapt=2 / b_bias=0 / direct=3 / weightb=1 / open_gop=0 / weightp=2 / keyint=600 / keyint_min=59 / scenecut=40 / intra_refresh=0 / rc_lookahead=40 / rc=2pass / mbtree=0 / bitrate=5000 / ratetol=1.0 / qcomp=0.60 / qpmin=0 / qpmax=69 / qpstep=4 / cplxblur=20.0 / qblur=0.5 / vbv_maxrate=14000 / vbv_bufsize=14000 / nal_hrd=none / filler=0 / ip_ratio=1.40 / pb_ratio=1.30 / aq=1:1.00
Language : English
Default : Yes
Forced : No
Audio #1
ID : 2
Format : AC-3
Format/Info : Audio Coding 3
Mode extension : CM (complete main)
Codec ID : A_AC3
Duration : 1h 37mn
Bit rate mode : Constant
Bit rate : 192 Kbps
Channel(s) : 2 channels
Channel positions : Front: L R
Sampling rate : 48.0 KHz
Bit depth : 16 bits
Compression mode : Lossy
Stream size : 133 MiB (3%)
Title : Одноголосый, закадровый Вартан Дохалов
Language : Russian
Default : Yes
Forced : No
Audio #2
ID : 3
Format : AC-3
Format/Info : Audio Coding 3
Mode extension : CM (complete main)
Codec ID : A_AC3
Duration : 1h 37mn
Bit rate mode : Constant
Bit rate : 192 Kbps
Channel(s) : 2 channels
Channel positions : Front: L R
Sampling rate : 48.0 KHz
Bit depth : 16 bits
Compression mode : Lossy
Stream size : 133 MiB (3%)
Title : Одноголосый, закадровый Андрей Дольский
Language : Russian
Default : No
Forced : No
Audio #3
ID : 4
Format : AC-3
Format/Info : Audio Coding 3
Mode extension : CM (complete main)
Codec ID : A_AC3
Duration : 1h 37mn
Bit rate mode : Constant
Bit rate : 192 Kbps
Channel(s) : 2 channels
Channel positions : Front: L R
Sampling rate : 48.0 KHz
Bit depth : 16 bits
Compression mode : Lossy
Stream size : 133 MiB (3%)
Title : Одноголосый, закадровый
Language : Russian
Default : No
Forced : No
Text
ID : 5
Format : UTF-8
Codec ID : S_TEXT/UTF8
Codec ID/Info : UTF-8 Plain Text
Title : Полные
Language : English
Default : No
Forced : No
Menu
00:00:00.000 : en:00:00:00.000
00:10:04.729 : en:00:10:04.729
00:17:47.400 : en:00:17:47.400
00:28:08.353 : en:00:28:08.353
00:35:36.051 : en:00:35:36.051
00:45:55.962 : en:00:45:55.962
00:51:55.654 : en:00:51:55.654
01:00:13.401 : en:01:00:13.401
01:10:19.257 : en:01:10:19.257
01:20:04.008 : en:01:20:04.008
01:24:38.991 : en:01:24:38.991
01:33:49.249 : en:01:33:49.249

Хэллоуин 6: Проклятие Майкла Майерса / Halloween: The Curse of Michael Myers (1995)

«Six times the terror... Six times the fear... Six times the thrills...»- Информация
Название: Хэллоуин 6: Проклятие Майкла Майерса
Оригинальное название: Halloween: The Curse of Michael Myers
Год выхода: 1995
Жанр: ужасы, триллер
Режиссер: Джо Чаппелль
Сценарий: Дэниэл Фаррандс, Дебра Хилл, Джон Карпентер
Продюсер: Пол Фриман, Малек Аккад, Мустафа Аккад
В ролях: Дональд Плезенс, Пол Радд, Марианн Хэйгэн, Митч Райан, Ким Дарби, Брэдфорд Инглиш, Кейт Богарт, Мэрайя О’Брайэн, Лео Гетер, Дж.С. Брэнди
--Сюжет:
Продолжение известного триллера о безжалостном маньяке Майкле Майерсе, который в очередной раз появляется в маленьком американском городке Хэддонфилд накануне праздника Дня Всех Святых.- - Страна: США
Продолжительность: 01:28:11

Файл
Кодек: MPEG4/ISO/AVC H.264
Формат: MKV
Качество: BDRip-AVC 60 fps
Видео: 1024x552 (1.855) | 59,940 fps | 5.1 Мбит/сек
Аудио: AC3 | 2.0 | 48 kHz | 192 kbps | 16 bit | НТВ+ |
Субтитры: английские (Полные)

MedifInfo

Video
ID : 1
Format : AVC
Format/Info : Advanced Video Codec
Format profile : High@L4.1
Format settings, CABAC : Yes
Format settings, ReFrames : 4 frames
Codec ID : V_MPEG4/ISO/AVC
Duration : 1h 28mn
Bit rate : 5 100 Kbps
Width : 1 024 pixels
Height : 552 pixels
Display aspect ratio : 1.855
Frame rate : 60.000 fps
Color space : YUV
Chroma subsampling : 4:2:0
Bit depth : 8 bits
Scan type : Progressive
Bits/(Pixel*Frame) : 0.150
Stream size : 3.08 GiB (94%)
Title : Tiberiumsun69
Writing library : x264 core 146 r2538 121396c
Encoding settings : cabac=1 / ref=3 / deblock=1:0:0 / analyse=0x3:0x113 / me=umh / subme=9 / psy=1 / psy_rd=1.00:0.10 / mixed_ref=1 / me_range=32 / chroma_me=1 / trellis=2 / 8x8dct=1 / cqm=0 / deadzone=21,11 / fast_pskip=0 / chroma_qp_offset=-3 / threads=12 / lookahead_threads=3 / sliced_threads=0 / nr=0 / decimate=1 / interlaced=0 / bluray_compat=0 / constrained_intra=0 / bframes=16 / b_pyramid=2 / b_adapt=2 / b_bias=0 / direct=3 / weightb=1 / open_gop=0 / weightp=2 / keyint=600 / keyint_min=60 / scenecut=40 / intra_refresh=0 / rc_lookahead=40 / rc=2pass / mbtree=0 / bitrate=5100 / ratetol=1.0 / qcomp=0.60 / qpmin=0 / qpmax=69 / qpstep=4 / cplxblur=20.0 / qblur=0.5 / vbv_maxrate=14000 / vbv_bufsize=14000 / nal_hrd=none / filler=0 / ip_ratio=1.40 / pb_ratio=1.30 / aq=1:1.00
Language : English
Default : Yes
Forced : No
Audio
ID : 2
Format : AC-3
Format/Info : Audio Coding 3
Mode extension : CM (complete main)
Codec ID : A_AC3
Duration : 1h 28mn
Bit rate mode : Constant
Bit rate : 192 Kbps
Channel(s) : 2 channels
Channel positions : Front: L R
Sampling rate : 48.0 KHz
Bit depth : 16 bits
Compression mode : Lossy
Stream size : 121 MiB (4%)
Title : Двухголосый, закадровый НТВ+
Language : Russian
Default : Yes
Forced : No
Text
ID : 3
Format : UTF-8
Codec ID : S_TEXT/UTF8
Codec ID/Info : UTF-8 Plain Text
Title : Полные
Language : English
Default : No
Forced : No
Menu
00:00:00.000 : en:00:00:00.000
00:04:35.692 : en:00:04:35.692
00:11:28.358 : en:00:11:28.358
00:15:52.525 : en:00:15:52.525
00:19:54.858 : en:00:19:54.858
00:25:39.608 : en:00:25:39.608
00:31:29.983 : en:00:31:29.983
00:39:02.067 : en:00:39:02.067
00:43:23.233 : en:00:43:23.233
00:48:54.358 : en:00:48:54.358
00:58:15.400 : en:00:58:15.400
01:04:25.692 : en:01:04:25.692
01:10:51.983 : en:01:10:51.983
01:14:26.567 : en:01:14:26.567
01:17:57.358 : en:01:17:57.358

Хэллоуин: 20 лет спустя / Halloween H20: 20 Years Later (1998)

«Ужас не уходит в отпуск»- Информация
Название: Хэллоуин: 20 лет спустя
Оригинальное название: Halloween H20: 20 Years Later
Год выхода: 1998
Жанр: ужасы, триллер
Режиссер: Стив Майнер
Сценарий: Роберт Заппиа, Мэтт Гринберг, Дебра Хилл
Продюсер: Пол Фриман, Малек Аккад, Мустафа Аккад
В ролях: Джейми Ли Кёртис, Джош Хартнетт, Мишель Уильямс, Джозеф Гордон-Левитт, Адам Аркин, LL Кул Джей, Джоди Лин О’Кифи, Адам Хэнн-Берд, Джанет Ли, Нэнси Стивенс
--Сюжет:
Спустя 20 лет Лори Строуд опять вынуждена бороться со своим прошлым! Эти годы она жила под вымышленным именем вместе с сыном Джоном. Но Майкл Майерс внезапно вернулся в ее жизнь с местью. С местью не только к Лори. Ужас начался для всего города! Когда группа студентов отправляется на праздник Хэллоуин, они оказываются в кровавой реке. И снова Лори должна спасти всех от исчадья Ада.- - Страна: США
Продолжительность: 01:26:13

Файл
Кодек: MPEG4/ISO/AVC H.264
Формат: MKV
Качество: BDRip-AVC 60 fps
Видео: 1024x440 (2.35:1) | 59,940 fps | 4.0 Мбит/сек
Аудио: AC3 | 5.1 | 48 kHz | 384 kbps | 16 bit | R5 |
Субтитры: русские (Полные), английские (Полные)

MedifInfo

Video
ID : 1
Format : AVC
Format/Info : Advanced Video Codec
Format profile : High@L4.1
Format settings, CABAC : Yes
Format settings, ReFrames : 4 frames
Codec ID : V_MPEG4/ISO/AVC
Duration : 1h 26mn
Bit rate : 4 000 Kbps
Width : 1 024 pixels
Height : 440 pixels
Display aspect ratio : 2.35:1
Frame rate : 60.000 fps
Color space : YUV
Chroma subsampling : 4:2:0
Bit depth : 8 bits
Scan type : Progressive
Bits/(Pixel*Frame) : 0.148
Stream size : 2.36 GiB (89%)
Title : Tiberiumsun69
Writing library : x264 core 146 r2538 121396c
Encoding settings : cabac=1 / ref=3 / deblock=1:0:0 / analyse=0x3:0x113 / me=umh / subme=9 / psy=1 / psy_rd=1.00:0.10 / mixed_ref=1 / me_range=32 / chroma_me=1 / trellis=2 / 8x8dct=1 / cqm=0 / deadzone=21,11 / fast_pskip=0 / chroma_qp_offset=-3 / threads=12 / lookahead_threads=3 / sliced_threads=0 / nr=0 / decimate=1 / interlaced=0 / bluray_compat=0 / constrained_intra=0 / bframes=16 / b_pyramid=2 / b_adapt=2 / b_bias=0 / direct=3 / weightb=1 / open_gop=0 / weightp=2 / keyint=600 / keyint_min=60 / scenecut=40 / intra_refresh=0 / rc_lookahead=40 / rc=2pass / mbtree=0 / bitrate=4000 / ratetol=1.0 / qcomp=0.60 / qpmin=0 / qpmax=69 / qpstep=4 / cplxblur=20.0 / qblur=0.5 / vbv_maxrate=14000 / vbv_bufsize=14000 / nal_hrd=none / filler=0 / ip_ratio=1.40 / pb_ratio=1.30 / aq=1:1.00
Language : English
Default : Yes
Forced : No
Audio
ID : 2
Format : AC-3
Format/Info : Audio Coding 3
Mode extension : CM (complete main)
Codec ID : A_AC3
Duration : 1h 26mn
Bit rate mode : Constant
Bit rate : 384 Kbps
Channel(s) : 6 channels
Channel positions : Front: L C R, Side: L R, LFE
Sampling rate : 48.0 KHz
Bit depth : 16 bits
Compression mode : Lossy
Stream size : 237 MiB (9%)
Title : Многоголосый, закадровый R5
Language : Russian
Default : Yes
Forced : No
Text #1
ID : 3
Format : UTF-8
Codec ID : S_TEXT/UTF8
Codec ID/Info : UTF-8 Plain Text
Title : Полные
Language : Russian
Default : No
Forced : No
Text #2
ID : 4
Format : UTF-8
Codec ID : S_TEXT/UTF8
Codec ID/Info : UTF-8 Plain Text
Title : Полные
Language : English
Default : No
Forced : No
Menu
00:00:00.000 : en:00:00:00.000
00:05:30.775 : en:00:05:30.775
00:09:30.317 : en:00:09:30.317
00:15:28.733 : en:00:15:28.733
00:22:21.942 : en:00:22:21.942
00:27:07.275 : en:00:27:07.275
00:34:43.650 : en:00:34:43.650
00:40:11.275 : en:00:40:11.275
00:48:07.733 : en:00:48:07.733
00:51:25.692 : en:00:51:25.692
00:56:19.733 : en:00:56:19.733
01:00:26.733 : en:01:00:26.733
01:05:04.942 : en:01:05:04.942
01:10:08.567 : en:01:10:08.567
01:15:12.608 : en:01:15:12.608

Хэллоуин: Воскрешение / Halloween: Resurrection (2002)

«Они играли со смертью. Они проиграли...»- Информация
Название: Хэллоуин: Воскрешение
Оригинальное название: Halloween: Resurrection
Год выхода: 2002
Жанр: ужасы, триллер
Режиссер: Рик Розенталь
Сценарий: Ларри Брэнд, Шон Худ, Дебра Хилл
Продюсер: Пол Фриман, Майкл Лихи, Малек Аккад
В ролях: Джейми Ли Кёртис, Брэд Лори, Баста Раймс, Бьянка Кайлич, Шон Патрик Томас, Дэйзи МакКрэкин, Кэти Сакхофф, Люк Кирби, Томас Иэн Николас, Райан Мерриман, Наташа Мальте
--Сюжет:
Некий шоу-бизнесмен устраивает в доме печально известного убийцы Майкла Майерса, считающегося мертвым, действо, весьма напоминающее шоу «За стеклом». Группа подростков должна провести ночь в доме маньяка с трансляцией всего происходящего в интернет, из оборудования только е-майл.
Чего бояться, если хозяин давно мертв? Но возникает одна проблема — Майерс возвращается в родные стены…
- - Страна: США
Продолжительность: 01:29:32

Файл
Кодек: MPEG4/ISO/AVC H.264
Формат: MKV
Качество: BDRip-AVC 60 fps
Видео: 1024x432 (2.35:1) | 59,940 fps | 4.0 Мбит/сек
Аудио: AC3 | 5.1 | 48 kHz | 448 kbps | 16 bit | Дубляж |
Субтитры: русские (Полные), английские (Полные)

MedifInfo

Video
ID : 1
Format : AVC
Format/Info : Advanced Video Codec
Format profile : High@L4.1
Format settings, CABAC : Yes
Format settings, ReFrames : 4 frames
Codec ID : V_MPEG4/ISO/AVC
Duration : 1h 29mn
Bit rate : 4 000 Kbps
Width : 1 024 pixels
Height : 432 pixels
Display aspect ratio : 2.35:1
Frame rate : 59.940 fps
Color space : YUV
Chroma subsampling : 4:2:0
Bit depth : 8 bits
Scan type : Progressive
Bits/(Pixel*Frame) : 0.151
Stream size : 2.45 GiB (88%)
Title : Tiberiumsun69
Writing library : x264 core 146 r2538 121396c
Encoding settings : cabac=1 / ref=3 / deblock=1:0:0 / analyse=0x3:0x113 / me=umh / subme=9 / psy=1 / psy_rd=1.00:0.10 / mixed_ref=1 / me_range=32 / chroma_me=1 / trellis=2 / 8x8dct=1 / cqm=0 / deadzone=21,11 / fast_pskip=0 / chroma_qp_offset=-3 / threads=12 / lookahead_threads=3 / sliced_threads=0 / nr=0 / decimate=1 / interlaced=0 / bluray_compat=0 / constrained_intra=0 / bframes=16 / b_pyramid=2 / b_adapt=2 / b_bias=0 / direct=3 / weightb=1 / open_gop=0 / weightp=2 / keyint=600 / keyint_min=59 / scenecut=40 / intra_refresh=0 / rc_lookahead=40 / rc=2pass / mbtree=0 / bitrate=4000 / ratetol=1.0 / qcomp=0.60 / qpmin=0 / qpmax=69 / qpstep=4 / cplxblur=20.0 / qblur=0.5 / vbv_maxrate=14000 / vbv_bufsize=14000 / nal_hrd=none / filler=0 / ip_ratio=1.40 / pb_ratio=1.30 / aq=1:1.00
Language : English
Default : Yes
Forced : No
Audio
ID : 2
Format : AC-3
Format/Info : Audio Coding 3
Mode extension : CM (complete main)
Codec ID : A_AC3
Duration : 1h 29mn
Bit rate mode : Constant
Bit rate : 448 Kbps
Channel(s) : 6 channels
Channel positions : Front: L C R, Side: L R, LFE
Sampling rate : 48.0 KHz
Bit depth : 16 bits
Compression mode : Lossy
Stream size : 287 MiB (10%)
Title : Дубляж
Language : Russian
Default : Yes
Forced : No
Text #1
ID : 3
Format : UTF-8
Codec ID : S_TEXT/UTF8
Codec ID/Info : UTF-8 Plain Text
Title : Полные
Language : Russian
Default : No
Forced : No
Text #2
ID : 4
Format : UTF-8
Codec ID : S_TEXT/UTF8
Codec ID/Info : UTF-8 Plain Text
Title : Полные
Language : English
Default : No
Forced : No
Menu
00:00:00.000 : en:Chapter 1
00:04:19.759 : en:Chapter 2
00:08:02.607 : en:Chapter 3
00:11:53.295 : en:Chapter 4
00:16:44.336 : en:Chapter 5
00:21:24.574 : en:Chapter 6
00:25:38.537 : en:Chapter 7
00:28:22.242 : en:Chapter 8
00:32:40.208 : en:Chapter 9
00:36:46.621 : en:Chapter 10
00:41:20.686 : en:Chapter 11
00:45:28.016 : en:Chapter 12
00:52:59.342 : en:Chapter 13
00:55:14.394 : en:Chapter 14
00:59:03.790 : en:Chapter 15
01:04:02.088 : en:Chapter 16
01:07:41.056 : en:Chapter 17
01:11:47.720 : en:Chapter 18
01:16:46.977 : en:Chapter 19
01:21:16.746 : en:Chapter 20
01:25:16.903 : en:Chapter 21

Хэллоуин 2007 / Halloween (2007)

«У зла есть судьба»- Информация
Название: Хэллоуин 2007
Оригинальное название: Halloween
Год выхода: 2007
Жанр: ужасы, триллер
Режиссер: Роб Зомби
Сценарий: Роб Зомби, Джон Карпентер, Дебра Хилл
Продюсер: Малек Аккад, Энди Гулд, Роб Зомби
В ролях: Малкольм МакДауэлл, Скаут Тэйлор-Комптон, Тайлер Мэйн, Дег Ферч, Шери Мун Зомби, Уильям Форсайт, Даниэль Харрис, Кристина Клебе, Скайлер Джизондо, Дэнни Трехо
--Сюжет:
Римейк фильма Джона Карпентера 1978 года. На этот раз нам предлагают взглянуть на судьбу убийцы Майкла Майерса под другим углом. Что же толкнуло его на путь насилия и послужило причиной длинной череды кровавых событий последующих лет?- - Страна: США
Продолжительность: 02:01:30

Файл
Кодек: MPEG4/ISO/AVC H.264
Формат: MKV
Качество: HDRip-AVC 60 fps
Видео: 1024x424 (2.40:1) | 59,940 fps | 4.0 Мбит/сек
Аудио: AC3 | 2.0 | 48 kHz | 192 kbps | 16 bit | Дубляж + MVO на реж. места |
Субтитры: русские (Полные), английские (Полные)

MedifInfo

Video
ID : 1
Format : AVC
Format/Info : Advanced Video Codec
Format profile : High@L4.1
Format settings, CABAC : Yes
Format settings, ReFrames : 4 frames
Codec ID : V_MPEG4/ISO/AVC
Duration : 2h 1mn
Bit rate : 4 000 Kbps
Width : 1 024 pixels
Height : 424 pixels
Display aspect ratio : 2.40:1
Frame rate : 59.940 fps
Color space : YUV
Chroma subsampling : 4:2:0
Bit depth : 8 bits
Scan type : Progressive
Bits/(Pixel*Frame) : 0.154
Stream size : 3.32 GiB (93%)
Title : Tiberiumsun69
Writing library : x264 core 146 r2538 121396c
Encoding settings : cabac=1 / ref=3 / deblock=1:0:0 / analyse=0x3:0x113 / me=umh / subme=9 / psy=1 / psy_rd=1.00:0.10 / mixed_ref=1 / me_range=32 / chroma_me=1 / trellis=2 / 8x8dct=1 / cqm=0 / deadzone=21,11 / fast_pskip=0 / chroma_qp_offset=-3 / threads=12 / lookahead_threads=3 / sliced_threads=0 / nr=0 / decimate=1 / interlaced=0 / bluray_compat=0 / constrained_intra=0 / bframes=16 / b_pyramid=2 / b_adapt=2 / b_bias=0 / direct=3 / weightb=1 / open_gop=0 / weightp=2 / keyint=600 / keyint_min=59 / scenecut=40 / intra_refresh=0 / rc_lookahead=40 / rc=2pass / mbtree=0 / bitrate=4000 / ratetol=1.0 / qcomp=0.60 / qpmin=0 / qpmax=69 / qpstep=4 / cplxblur=20.0 / qblur=0.5 / vbv_maxrate=14000 / vbv_bufsize=14000 / nal_hrd=none / filler=0 / ip_ratio=1.40 / pb_ratio=1.30 / aq=1:1.00
Language : English
Default : Yes
Forced : No
Audio
ID : 2
Format : AC-3
Format/Info : Audio Coding 3
Mode extension : CM (complete main)
Codec ID : A_AC3
Duration : 2h 1mn
Bit rate mode : Constant
Bit rate : 192 Kbps
Channel(s) : 2 channels
Channel positions : Front: L R
Sampling rate : 48.0 KHz
Bit depth : 16 bits
Compression mode : Lossy
Stream size : 167 MiB (5%)
Title : Дубляж + MVO на реж. места
Language : Russian
Default : Yes
Forced : No
Text #1
ID : 3
Format : UTF-8
Codec ID : S_TEXT/UTF8
Codec ID/Info : UTF-8 Plain Text
Title : Полные
Language : Russian
Default : No
Forced : No
Text #2
ID : 4
Format : UTF-8
Codec ID : S_TEXT/UTF8
Codec ID/Info : UTF-8 Plain Text
Title : Полные
Language : English
Default : No
Forced : No

Хэллоуин 2 / Halloween II (2009)

«Family Is Forever»- Информация
Название: Хэллоуин 2
Оригинальное название: Halloween II
Год выхода: 2009
Жанр: ужасы, триллер
Режиссер: Роб Зомби
Сценарий: Роб Зомби
Продюсер: Малек Аккад, Энди Гулд, Роб Зомби
В ролях: Шери Мун Зомби, Чейз Ванек, Скаут Тэйлор-Комптон, Брэд Дуриф, Кэролин Уильямс, Малкольм МакДауэлл, Тайлер Мэйн, Дэйтон Калли, Ричард Брэйк, Октавия Спенсер, Сайлэс Вейр Митчел
--Сюжет:
Действие разворачивается сразу после окончания первого фильма. Лори Строуд и доктор Сэм Лумис выживают после бойни, устроенной маньяком по имени Майкл Майерс. Якобы мертвого Майкла увозят в морг, но по дороге маньяк приходит в сознание и сбегает.
Прошло два года. У Лори появляются видения, становящиеся все ужаснее. Приближается Хэллоуин. Майкл Майерс возвращается в родной Хэддонфилд, чтобы закончить свое кровавое дело. Шансы на спасение Лори и других невинных людей становятся еще более призрачными, чем раньше…
- - Страна: США
Продолжительность: 01:59:05

Файл
Кодек: MPEG4/ISO/AVC H.264
Формат: MKV
Качество: HDRip-AVC 60 fps
Видео: 1024x552 (1.855) | 59,940 fps | 4.3 Мбит/сек
Аудио: AC3 | 5.1 | 48 kHz | 448 kbps | 16 bit | Профессиональный (двухголосый) |

MedifInfo

Video
ID : 1
Format : AVC
Format/Info : Advanced Video Codec
Format profile : High@L4.1
Format settings, CABAC : Yes
Format settings, ReFrames : 4 frames
Codec ID : V_MPEG4/ISO/AVC
Duration : 1h 59mn
Bit rate : 4 300 Kbps
Width : 1 024 pixels
Height : 552 pixels
Display aspect ratio : 1.855
Frame rate : 59.940 fps
Color space : YUV
Chroma subsampling : 4:2:0
Bit depth : 8 bits
Scan type : Progressive
Bits/(Pixel*Frame) : 0.127
Stream size : 3.50 GiB (89%)
Title : Tiberiumsun69
Writing library : x264 core 146 r2538 121396c
Encoding settings : cabac=1 / ref=3 / deblock=1:0:0 / analyse=0x3:0x113 / me=umh / subme=9 / psy=1 / psy_rd=1.00:0.10 / mixed_ref=1 / me_range=32 / chroma_me=1 / trellis=2 / 8x8dct=1 / cqm=0 / deadzone=21,11 / fast_pskip=0 / chroma_qp_offset=-3 / threads=12 / lookahead_threads=3 / sliced_threads=0 / nr=0 / decimate=1 / interlaced=0 / bluray_compat=0 / constrained_intra=0 / bframes=16 / b_pyramid=2 / b_adapt=2 / b_bias=0 / direct=3 / weightb=1 / open_gop=0 / weightp=2 / keyint=600 / keyint_min=59 / scenecut=40 / intra_refresh=0 / rc_lookahead=40 / rc=2pass / mbtree=0 / bitrate=4300 / ratetol=1.0 / qcomp=0.60 / qpmin=0 / qpmax=69 / qpstep=4 / cplxblur=20.0 / qblur=0.5 / vbv_maxrate=14000 / vbv_bufsize=14000 / nal_hrd=none / filler=0 / ip_ratio=1.40 / pb_ratio=1.30 / aq=1:1.00
Language : English
Default : Yes
Forced : No
Audio
ID : 2
Format : AC-3
Format/Info : Audio Coding 3
Mode extension : CM (complete main)
Codec ID : A_AC3
Duration : 1h 59mn
Bit rate mode : Constant
Bit rate : 448 Kbps
Channel(s) : 6 channels
Channel positions : Front: L C R, Side: L R, LFE
Sampling rate : 48.0 KHz
Bit depth : 16 bits
Compression mode : Lossy
Delay relative to video : 305ms
Stream size : 382 MiB (9%)
Title : Двуголосый, закадровый
Language : Russian
Default : Yes
Forced : No

[Цитировать]
sawok90

Сидерам спасибо!скачаю с удовольствием!
 
Показать сообщения:    

Текущее время: 09-Дек 22:18

Часовой пояс: UTC + 3


Вы не можете начинать темы
Вы не можете отвечать на сообщения
Вы не можете редактировать свои сообщения
Вы не можете удалять свои сообщения
Вы не можете голосовать в опросах
Вы не можете прикреплять файлы к сообщениям
Вы не можете скачивать файлы