Внимание!

Перед скачиванием обязательно проверьте Сэмплы на своем оборудовании.

Благодарности

Raven за помощ при создании релиза и обложек

Хеллбой: Герой из пекла (Director's Cut)

-Название: Хеллбой: Герой из пекла / Hellboy
Оригинальное название: Хеллбой: Герой из пекла / Hellboy
Год выпуска: 2004
Страна: США
Жанр: фантастика, фэнтези, боевик, приключения
Продолжительность: 02:12:28
Перевод: Дубляж + многогосный, закадровый на вставки (Киномания)
Субтитры:Русские (Полные), английские (полные)
Вид субтитров Вшитые, отключаемые
Главы Есть-Режиссер: Гильермо дель Торо / Guillermo del Toro-В ролях: Рон Перлман (Hellboy), Джон Хёрт (Trevor «Broom» Bruttenholm), Сэльма Блэр (Liz Sherman), Руперт Эванс (John Myers), Карел Роден (Grigori Rasputin), Джеффри Тэмбор (Tom Manning), Даг Джонс (Abe Sapien), Брайан Стил (Sammael), Ладислав Беран (Karl Ruprecht Kroenen), Бидди Ходсон (Ilsa Haupstein), Кори Джонсон (Agent Clay), Кевин Трэйнор (Young «Broom»)-Описание:
Вторая мировая война. Нацисты терпят одно сокрушительное поражение за другим. В результате исследования оккультных ритуалов в супер-секретной лаборатории ученым, работающим на фашистский режим, удается поднять из небытия Демона Ада, который должен помочь переломить ход войны.
Но в научную лабораторию тайно проникает отряд союзников и поворачивает это мистическое и грозное оружие против нацистов. Однако никто из участников эксперимента и не предполагает, что врата потустороннего мира после открытия окажутся неподвластны людям, и им придется столкнуться с существами еще более опасными и непредсказуемыми, чем Демон Ада...-Рейтинг

imdb.com: 6.80 (206 458)
MPAA: PG-13 - Детям до 13 лет просмотр не желателен-Качество: BDRip 1080p / 60 FPS
Формат: MKV
Видео кодек: AVC
Аудио кодек:AC3
Видео: AVC, 1920x1040, 14202 kbps, 59,940 fps
Аудио №1: русский / AC3 / 5.1 / 48 kHz / 448 kbps / 16 bit |Дубляж + многогосный, закадровый на вставки (Киномания)|
Аудио №2: русский / AC3 / 5.1 / 48 kHz / 448 kbps / 16 bit |Многоголосый закадровый Киномания|
Аудио №3: английский / AC3 / 5.1 / 48 kHz / 640 kbps / 16 bit- -

MI

General
Unique ID : 215136548871731862677197606081065396046 (0xA1D9CACB0677897D86880A016890274E)
Complete name : A:1080p 60fpsХеллбой 1080p 60fpsХеллбой 1 1080p 60fps.mkv
Format : Matroska
Format version : Version 4 / Version 2
File size : 14.9 GiB
Duration : 2h 12mn
Overall bit rate : 16.1 Mbps
Encoded date : UTC 2014-09-01 23:10:48
Writing application : mkvmerge v6.9.1 ('Blue Panther') 64bit built on Apr 18 2014 18:23:38
Writing library : libebml v1.3.0 + libmatroska v1.4.1
Video
ID : 1
Format : AVC
Format/Info : Advanced Video Codec
Format profile : High@L4.1
Format settings, CABAC : Yes
Format settings, ReFrames : 4 frames
Codec ID : V_MPEG4/ISO/AVC
Duration : 2h 12mn
Bit rate : 14.2 Mbps
Width : 1 920 pixels
Height : 1 040 pixels
Display aspect ratio : 16:9
Frame rate : 59.940 fps
Color space : YUV
Chroma subsampling : 4:2:0
Bit depth : 8 bits
Scan type : Progressive
Bits/(Pixel*Frame) : 0.119
Stream size : 13.1 GiB (88%)
Writing library : x264 core 133 r2334 a3ac64b
Encoding settings : cabac=1 / ref=4 / deblock=1:-1:-1 / analyse=0x3:0 / me=umh / subme=9 / psy=1 / psy_rd=1.00:0.10 / mixed_ref=1 / me_range=42 / chroma_me=0 / trellis=2 / 8x8dct=1 / cqm=0 / deadzone=21,11 / fast_pskip=0 / chroma_qp_offset=-3 / threads=12 / lookahead_threads=1 / sliced_threads=0 / nr=0 / decimate=0 / interlaced=0 / bluray_compat=0 / constrained_intra=0 / bframes=5 / b_pyramid=2 / b_adapt=2 / b_bias=0 / direct=1 / weightb=1 / open_gop=0 / weightp=2 / keyint=594 / keyint_min=59 / scenecut=40 / intra_refresh=0 / rc=crf / mbtree=0 / crf=17.0 / qcomp=0.60 / qpmin=0 / qpmax=69 / qpstep=4 / ip_ratio=1.40 / pb_ratio=1.30 / aq=0
Language : English
Default : Yes
Forced : No
Audio #1
ID : 2
Format : AC-3
Format/Info : Audio Coding 3
Mode extension : CM (complete main)
Codec ID : A_AC3
Duration : 2h 12mn
Bit rate mode : Constant
Bit rate : 448 Kbps
Channel(s) : 6 channels
Channel positions : Front: L C R, Side: L R, LFE
Sampling rate : 48.0 KHz
Bit depth : 16 bits
Compression mode : Lossy
Stream size : 425 MiB (3%)
Title : Дубляж со вставками
Language : Russian
Default : Yes
Forced : No
Audio #2
ID : 3
Format : AC-3
Format/Info : Audio Coding 3
Mode extension : CM (complete main)
Codec ID : A_AC3
Duration : 2h 12mn
Bit rate mode : Constant
Bit rate : 448 Kbps
Channel(s) : 6 channels
Channel positions : Front: L C R, Side: L R, LFE
Sampling rate : 48.0 KHz
Bit depth : 16 bits
Compression mode : Lossy
Stream size : 425 MiB (3%)
Title : Многоголосный закадровый Киномания
Language : Russian
Default : No
Forced : No
Audio #3
ID : 6
Format : AC-3
Format/Info : Audio Coding 3
Mode extension : CM (complete main)
Codec ID : A_AC3
Duration : 2h 12mn
Bit rate mode : Constant
Bit rate : 640 Kbps
Channel(s) : 6 channels
Channel positions : Front: L C R, Side: L R, LFE
Sampling rate : 48.0 KHz
Bit depth : 16 bits
Compression mode : Lossy
Stream size : 606 MiB (4%)
Title : Оригинал
Language : English
Default : No
Forced : No
Text #1
ID : 4
Format : UTF-8
Codec ID : S_TEXT/UTF8
Codec ID/Info : UTF-8 Plain Text
Title : Полные
Language : Russian
Default : No
Forced : No
Text #2
ID : 5
Format : UTF-8
Codec ID : S_TEXT/UTF8
Codec ID/Info : UTF-8 Plain Text
Title : Полные
Language : English
Default : No
Forced : No
Menu
00:00:00.000 : en:Chapter 1
00:06:42.902 : en:Chapter 2
00:14:38.252 : en:Chapter 3
00:22:50.035 : en:Chapter 4
00:31:06.906 : en:Chapter 5
00:40:09.156 : en:Chapter 6
00:47:42.067 : en:Chapter 7
00:53:32.959 : en:Chapter 8
00:58:40.433 : en:Chapter 9
01:03:57.667 : en:Chapter 10
01:10:57.503 : en:Chapter 11
01:18:40.465 : en:Chapter 12
01:28:18.042 : en:Chapter 13
01:34:50.184 : en:Chapter 14
01:39:44.478 : en:Chapter 15
01:48:09.524 : en:Chapter 16

Скриншоты

Хеллбой II: Золотая армия

-Название: Хеллбой II: Золотая армия / Hellboy II: The Golden Army
Оригинальное название: Хеллбой II: Золотая армия / Hellboy II: The Golden Army
Год выпуска: 2008
Страна: США, Германия
Жанр: фантастика, фэнтези, боевик, приключения
Продолжительность: 01:59:48
Перевод: Дубляж
Субтитры:Русские (Форсированные), русские (Полные), английские (полные)
Вид субтитров Вшитые, отключаемые
Главы Есть-Режиссер: Гильермо дель Торо / Guillermo del Toro-В ролях: Рон Перлман (Hellboy), Сэльма Блэр (Liz Sherman), Даг Джонс (Abe Sapien / Chamberlain / Angel of Death), Джон Александр (Johann Krauss / Bethmoora Goblin), Джеймс Додд (Johann Krauss), Сет МакФарлейн (Johann, озвучка), Люк Госс (Prince Nuada), Анна Уолтон (Princess Nuala), Джеффри Тэмбор (Tom Manning), Джон Хёрт (Professor Broom), Брайан Стил (Wink / Cronie / Spice Shop Troll / Cathedral Head / Fragglewump), Эндрю Хефлер (Agent Flint)-Описание:
После того как древнее перемирие между человечеством и тайным миром было нарушено, на Земле вот-вот разверзнется ад. Безжалостный лидер, вхожий в оба мира, бросает вызов своей крови и пробуждает на свет неодолимую армию чудовищ.
Настало время самому Хэллбою сразиться с беспощадным диктатором и его воинами. Вместе со своей пополняющей ряды командой «Бюро Паранормальных Исследований и Развития» он будет бороздить границы двух миров - нашего и скрытого, где самые невероятные существа обретают плоть. Хэллбою, порожденному обоими мирами, но не принадлежащему ни одному из них, предстоит выбирать между жизнью, которую он знает, и неизвестностью новой судьбы.-Рейтинг

imdb.com: 7.10 (177 436)
MPAA: PG-13 - Детям до 13 лет просмотр не желателен-Качество: BDRip 1080p / 60 FPS
Формат: MKV
Видео кодек: AVC
Аудио кодек:AC3
Видео: AVC, 1920x1040, 12562 kbps, 59,940 fps
Аудио №1: русский / AC3 / 5.1 / 48 kHz / 640 kbps / 16 bit |Дубляж|
Аудио №2: русский / AC3 / 5.1 / 48 kHz / 640 kbps / 16 bit |Многоголосный, закадровый Kravec|
Аудио №3: английский / AC3 / 5.1 / 48 kHz / 640 kbps / 16 bit- -

MI

General
Unique ID : 239886053644414118929042633444302778781 (0xB4785F96D862ED818FF6699894DBF19D)
Complete name : A:1080p 60fpsХеллбой 1080p 60fpsХеллбой 2 1080p 60fps.mkv
Format : Matroska
Format version : Version 4 / Version 2
File size : 12.4 GiB
Duration : 1h 59mn
Overall bit rate : 14.8 Mbps
Encoded date : UTC 2014-09-01 23:20:40
Writing application : mkvmerge v6.9.1 ('Blue Panther') 64bit built on Apr 18 2014 18:23:38
Writing library : libebml v1.3.0 + libmatroska v1.4.1
Video
ID : 1
Format : AVC
Format/Info : Advanced Video Codec
Format profile : High@L4.1
Format settings, CABAC : Yes
Format settings, ReFrames : 4 frames
Codec ID : V_MPEG4/ISO/AVC
Duration : 1h 59mn
Bit rate : 12.6 Mbps
Width : 1 920 pixels
Height : 1 040 pixels
Display aspect ratio : 16:9
Frame rate : 59.940 fps
Color space : YUV
Chroma subsampling : 4:2:0
Bit depth : 8 bits
Scan type : Progressive
Bits/(Pixel*Frame) : 0.105
Stream size : 10.5 GiB (85%)
Writing library : x264 core 133 r2334 a3ac64b
Encoding settings : cabac=1 / ref=4 / deblock=1:-1:-1 / analyse=0x3:0 / me=umh / subme=9 / psy=1 / psy_rd=1.00:0.10 / mixed_ref=1 / me_range=42 / chroma_me=0 / trellis=2 / 8x8dct=1 / cqm=0 / deadzone=21,11 / fast_pskip=0 / chroma_qp_offset=-3 / threads=12 / lookahead_threads=1 / sliced_threads=0 / nr=0 / decimate=0 / interlaced=0 / bluray_compat=0 / constrained_intra=0 / bframes=5 / b_pyramid=2 / b_adapt=2 / b_bias=0 / direct=1 / weightb=1 / open_gop=0 / weightp=2 / keyint=594 / keyint_min=59 / scenecut=40 / intra_refresh=0 / rc=crf / mbtree=0 / crf=16.0 / qcomp=0.60 / qpmin=0 / qpmax=69 / qpstep=4 / ip_ratio=1.40 / pb_ratio=1.30 / aq=0
Language : English
Default : Yes
Forced : No
Audio #1
ID : 2
Format : AC-3
Format/Info : Audio Coding 3
Mode extension : CM (complete main)
Codec ID : A_AC3
Duration : 1h 59mn
Bit rate mode : Constant
Bit rate : 640 Kbps
Channel(s) : 6 channels
Channel positions : Front: L C R, Side: L R, LFE
Sampling rate : 48.0 KHz
Bit depth : 16 bits
Compression mode : Lossy
Stream size : 548 MiB (4%)
Title : Дубляж
Language : Russian
Default : Yes
Forced : No
Audio #2
ID : 3
Format : AC-3
Format/Info : Audio Coding 3
Mode extension : CM (complete main)
Codec ID : A_AC3
Duration : 1h 59mn
Bit rate mode : Constant
Bit rate : 640 Kbps
Channel(s) : 6 channels
Channel positions : Front: L C R, Side: L R, LFE
Sampling rate : 48.0 KHz
Bit depth : 16 bits
Compression mode : Lossy
Stream size : 548 MiB (4%)
Title : Многоголосный закадровый Kravec
Language : Russian
Default : No
Forced : No
Audio #3
ID : 4
Format : AC-3
Format/Info : Audio Coding 3
Mode extension : CM (complete main)
Codec ID : A_AC3
Duration : 1h 59mn
Bit rate mode : Constant
Bit rate : 640 Kbps
Channel(s) : 6 channels
Channel positions : Front: L C R, Side: L R, LFE
Sampling rate : 48.0 KHz
Bit depth : 16 bits
Compression mode : Lossy
Stream size : 548 MiB (4%)
Title : Оригинал
Language : English
Default : No
Forced : No
Text #1
ID : 5
Format : UTF-8
Codec ID : S_TEXT/UTF8
Codec ID/Info : UTF-8 Plain Text
Title : Форсированные
Language : Russian
Default : Yes
Forced : No
Text #2
ID : 6
Format : UTF-8
Codec ID : S_TEXT/UTF8
Codec ID/Info : UTF-8 Plain Text
Title : Полные
Language : Russian
Default : No
Forced : No
Text #3
ID : 7
Format : UTF-8
Codec ID : S_TEXT/UTF8
Codec ID/Info : UTF-8 Plain Text
Title : Полные
Language : English
Default : No
Forced : No
Menu
00:00:00.000 : en:Ancient Truce
00:07:00.044 : en:Fear the Dark
00:11:48.874 : en:Top Secret
00:17:46.440 : en:World, Here I Come
00:26:36.970 : en:You Had No Right
00:29:57.921 : en:The Good, the Bad & the Worst
00:34:45.875 : en:A Nice Open Face
00:38:34.979 : en:The True Nature of Things
00:44:28.374 : en:The Troll Market
00:48:22.399 : en:Delicate Situation
00:55:07.262 : en:A Forest God
00:59:15.760 : en:One of Us
01:05:38.434 : en:Fatal Flaw
01:12:58.123 : en:Fallen for the Princess
01:16:10.065 : en:He's Here
01:21:59.915 : en:Running Out of Time
01:26:19.507 : en:Reason to Live
01:35:34.395 : en:The Army Awakens
01:42:08.789 : en:A Challenge
01:51:53.915 : en:End Titles

Скриншоты



Последний раз редактировалось: bot (2016-07-07 11:15), всего редактировалось 2 раз(а)

[Цитировать]
pvn777

Здравствуйте. Станьте на раздачу. Благодарю.

[Цитировать]
Kryl

3271Здравствуйте. Станьте на раздачу. Благодарю.
Пробуйте скачать .

[Цитировать]
pvn777

3274
3271Здравствуйте. Станьте на раздачу. Благодарю.
Пробуйте скачать .
Скорость конечно желала быть лучшей, но имеем то что имеем, и за это вам Благодарочка ! :))

[Цитировать]
pvn777

3275
3274
3271Здравствуйте. Станьте на раздачу. Благодарю.
Пробуйте скачать .
Скорость конечно желала быть лучшей, но имеем то что имеем, и за это вам Благодарочка ! :))
Прошу прощения, только посмотрел скорость !!! Все отлично идет !

[Цитировать]
pvn777

Пожалуйста, раздайте. Стало на 83%...

[Цитировать]
pvn777

3280Пожалуйста, раздайте. Стало на 83%...
Скачал. Спасибо.

[Цитировать]
Тимур Артыков

Люди помогите скачать пожалуйста. Скорость слабая уж больно
 
Показать сообщения:    

Текущее время: 08-Дек 19:02

Часовой пояс: UTC + 3


Вы не можете начинать темы
Вы не можете отвечать на сообщения
Вы не можете редактировать свои сообщения
Вы не можете удалять свои сообщения
Вы не можете голосовать в опросах
Вы не можете прикреплять файлы к сообщениям
Вы не можете скачивать файлы