[Цитировать]
Kryl

-- Музыка Havana Brown - Big Banana ft. R3hab, Prophet (2013) Master 1080p | 60 fps Музыка --Информация о Клипе
Исполнитель: Havana Brown
Название: Big Banana ft. R3hab, Prophet
Год выхода: 2013
Продолжительность: 00:03:53-Файл
Кодек: MPEG4/ISO/AVC/ H.264
Формат: MKV
Качество: Master 1080p | 60 fps
Видео: 1920 x 800 (2.400) | 59.940 fps 20.0 Мбит/сек
Аудио: DTS | 1413 Кбит/сек | 48.0 KHz | 2 channels | 16 bits

MediaInfo

Видео
Идентификатор : 1
Формат : AVC
Формат/Информация : Advanced Video Codec
Профиль формата : High@L4.2
Параметр CABAC формата : Да
Параметр ReFrames формата : 3 кадра
Идентификатор кодека : V_MPEG4/ISO/AVC
Продолжительность : 3 м. 53 с.
Вид битрейта : Переменный
Битрейт : 19,5 Мбит/сек
Максимальный битрейт : 20,0 Мбит/сек
Ширина : 1920 пикселей
Высота : 800 пикселей
Соотношение сторон : 2,40:1
Режим частоты кадров : Постоянный
Частота кадров : 59,880 кадров/сек
Частота кадров в оригинале : 59,940 кадров/сек
Стандарт вещания : PAL
Цветовое пространство : YUV
Субдискретизация насыщенности : 4:2:0
Битовая глубина : 8 бит
Тип развёртки : Прогрессивная
Бит/(Пиксели*Кадры) : 0.212
Размер потока : 542 Мбайт (91%)
Заголовок : www.60-fps.org
Язык : English
Default : Да
Forced : Нет
Основные цвета : BT.709
Характеристики трансфера : BT.709
Коэффициенты матрицы : BT.709
colour_range : Limited
Аудио
Идентификатор : 2
Формат : DTS
Формат/Информация : Digital Theater Systems
Режим : 16
Параметр Endianness формата : Big
Идентификатор кодека : A_DTS
Продолжительность : 3 м. 53 с.
Вид битрейта : Постоянный
Битрейт : 1413 Кбит/сек
Каналы : 2 канала
Расположение каналов : Front: L R
Частота : 48,0 КГц
Битовая глубина : 16 бит
Метод сжатия : С потерями
Задержка видео : 83 мс.
Размер потока : 39,3 Мбайт (7%)
Заголовок : DTS
Язык : English
Default : Да
Forced : Нет
DURATION : 00:03:52.992000000
NUMBER_OF_FRAMES : 21843
NUMBER_OF_BYTES : 41152212
_STATISTICS_WRITING_APP : mkvmerge v7.6.0 ('Garden of Dreams') 32bit built on Feb 8 2015 12:51:39
_STATISTICS_WRITING_DATE_UTC : 2016-03-04 20:11:54
_STATISTICS_TAGS : BPS DURATION NUMBER_OF_FRAMES NUMBER_OF_BYTES

Релиз подготовлен 60 - fps

[60-fps.org].t1867.torrent
Торрент: Зарегистрирован [ 2016-03-04 23:18 ] · 08EB7C653328804D860E2245EBCA19C06074BCD7

Скачать .torrent

Скачать

12 KB

Статус: проверено
Скачан: 39 раз
Поблагодарили:
Размер: 593 MB
 
Похожие Темы
 
Показать сообщения:    

Текущее время: 28-Фев 13:01

Часовой пояс: UTC + 3


Вы не можете начинать темы
Вы не можете отвечать на сообщения
Вы не можете редактировать свои сообщения
Вы не можете удалять свои сообщения
Вы не можете голосовать в опросах
Вы не можете прикреплять файлы к сообщениям
Вы можете скачивать файлы