[Цитировать]
Kryl

-- Музыка Havana Brown - BaBing (2014) Master 720p | 60 fps Музыка --Информация о Клипе
Исполнитель: Havana Brown
Название: BaBing
Год выхода: 2014
Продолжительность: 00:03:52-Файл
Кодек: ProRes
Формат: MPEG-4
Качество: Master 720p | 60 fps
Видео: 1280 x 720 (1.778) | 60.000 fps 81,4 Мбит/сек
Аудио: PCM | 1536 Кбит/сек | 48.0 KHz | 2 channels | 16 bits

MediaInfo

Видео
Идентификатор : 1
Формат : ProRes
Версия формата : Version 0
Идентификатор кодека : apcn
Продолжительность : 3 м. 52 с.
Вид битрейта : Переменный
Битрейт : 81,4 Мбит/сек
Ширина : 1280 пикселей
Высота : 720 пикселей
Соотношение сторон : 16:9
Режим частоты кадров : Постоянный
Частота кадров : 60,000 кадров/сек
Цветовое пространство : YUV
Субдискретизация насыщенности : 4:2:2
Тип развёртки : Прогрессивная
Бит/(Пиксели*Кадры) : 1.472
Размер потока : 2,20 Гбайт (98%)
Библиотека кодирования : Apple
Язык : English
Дата кодирования : UTC 2014-07-25 00:20:21
Дата пометки : UTC 2014-07-25 00:20:21
Основные цвета : BT.709
Характеристики трансфера : BT.709
Коэффициенты матрицы : BT.709
Аудио
Идентификатор : 2
Формат : PCM
Параметр Endianness формата : Little
Параметр Sign формата : Signed
Идентификатор кодека : sowt
Продолжительность : 3 м. 52 с.
Вид битрейта : Постоянный
Битрейт : 1536 Кбит/сек
Каналы : 2 канала
Расположение каналов : Front: L R
Частота : 48,0 КГц
Битовая глубина : 16 бит
Размер потока : 42,5 Мбайт (2%)
Язык : English
Дата кодирования : UTC 2014-07-25 00:20:21
Дата пометки : UTC 2014-07-25 00:20:21
Прочее
Идентификатор : 3
Тип : Time code
Формат : QuickTime TC
Продолжительность : 3 м. 52 с.
Временной код первого кадра : 00:00:00:00
TimeCode_Striped/String : Да
Язык : English
Дата кодирования : UTC 2014-07-25 00:20:21
Дата пометки : UTC 2014-07-25 00:20:21
МузыкаP.S. Поделка не моя , нашел на просторах инета Музыка
 
Показать сообщения:    

Текущее время: 07-Дек 19:20

Часовой пояс: UTC + 3


Вы не можете начинать темы
Вы не можете отвечать на сообщения
Вы не можете редактировать свои сообщения
Вы не можете удалять свои сообщения
Вы не можете голосовать в опросах
Вы не можете прикреплять файлы к сообщениям
Вы не можете скачивать файлы