Охота / The Hunt (2020) BDRip 1080p | 60 fps Кинг Конг / King Kong (2005 г.) BDRip 1080p | 60fps Властелин колец: Трилогия / The Lord of the Rings: Trilogy (2001-2003) BDRip-AVC | Extended Cut | 60 fps Принц Персии: Пески времени / Prince of Persia: The Sands of Time (2010) BDRip 1080p | 60 fps Армагеддон / Armageddon (1998) BDRip 720p | 60 fps Пятый элемент / The Fifth Element (1997) BDRip 1080p | 60 fps Вспомнить всё / Total Recall (1990) | Ultimate Rekall Edition | BDRip 1080p | 60 fps Игра престолов / Game of Thrones Сезон: 4 (Серии: 1-10 из 10) BDRip 1080p | 60fps
  1. Longevity:
    4 years 1 month
    Posts:
    1512
    Gender:
    Male
    Фильм «Unleash the hero within» Фильм- Информация
    Название: Халк
    Оригинальное название: Hulk
    Год выхода: 2003
    Жанр: фантастика, боевик
    Режиссер: Энг Ли
    Сценарий: Джеймс Шеймус, Джон Турман, Майкл Франс
    Продюсер: Ави Арад, Ларри Дж. Франко, Гейл Энн Хёрд
    В ролях: Эрик Бана,Дженнифер Коннелли,Сэм Эллиотт,Джош Лукас,Ник Нолти,Пол Керси,Кара Буоно,Тодд Тэсэн,Кевин О. Ранкин,Селия Уэстон
    --Сюжет:
    Доктор Брюс Бэннер (ученый, работающий над изобретением новой бомбы) подвергся воздействию гамма-лучей и превратился в Халка — существо невероятной физической силы, которое в состоянии ярости становится огромным зеленым монстром.
    Его преследуют военные под предводительством генерала Росса, ему приходится бежать через всю страну. В конце концов, у него возникает любовная история с генеральской дочкой Бетти…
    -- Страна: США
    Продолжительность: 02:18:05

    Файл
    Кодек: MPEG4/ISO/AVC H.264
    Формат: MKV
    Качество: BDRip 720p | 60 fps
    Видео: 1280 x 696 (1.839) | 59.940 fps | 4 628 Кбит/сек
    Аудио 1: AC3 | 5.1 | 48 kHz | 384 kbps | 16 bit | Дубляж iTunes |
    Субтитры: English

    MedifInfo

    Video
    Идентификатор : 1
    Формат : AVC
    Формат/Информация : Advanced Video Codec
    Профиль формата : High@L4.1
    Параметр CABAC формата : Yes
    Параметр ReFrames формата : 4 frames
    Идентификатор кодека : V_MPEG4/ISO/AVC
    Продолжительность : 2 h 18 min
    Битрейт : 4 628 kb/s
    Ширина : 1 280 pixels
    Высота : 696 pixels
    Соотношение сторон : 1.85:1
    Режим частоты кадров : Constant
    Частота кадров : 60.000 FPS
    Цветовое пространство : YUV
    Субдискретизация насыщенности : 4:2:0
    Битовая глубина : 8 bits
    Тип развёртки : Progressive
    Бит/(Пиксели*Кадры) : 0.087
    Размер потока : 4.46 GiB (91%)
    Заголовок : Hulk (2003) BDRip 720p (60 Fps).mkv
    Библиотека кодирования : x264 core 130 r2273 b3065e6
    Настройки программы : cabac=1 / ref=4 / deblock=1:0:0 / analyse=0x3:0x113 / me=umh / subme=8 / psy=1 / psy_rd=1.00:0.00 / mixed_ref=1 / me_range=24 / chroma_me=1 / trellis=2 / 8x8dct=1 / cqm=0 / deadzone=21,11 / fast_pskip=1 / chroma_qp_offset=-2 / threads=3 / lookahead_threads=1 / sliced_threads=0 / nr=0 / decimate=1 / interlaced=0 / bluray_compat=0 / constrained_intra=0 / bframes=4 / b_pyramid=2 / b_adapt=2 / b_bias=0 / direct=1 / weightb=1 / open_gop=0 / weightp=2 / keyint=600 / keyint_min=59 / scenecut=40 / intra_refresh=0 / rc_lookahead=40 / rc=crf / mbtree=1 / crf=15.0 / qcomp=0.60 / qpmin=0 / qpmax=69 / qpstep=4 / ip_ratio=1.40 / aq=1:1.00
    Язык : English
    Default : Yes
    Forced : No
    Audio
    Идентификатор : 2
    Формат : AC-3
    Формат/Информация : Audio Coding 3
    Расширение режима : CM (complete main)
    Параметр Endianness формата : Big
    Идентификатор кодека : A_AC3
    Продолжительность : 2 h 18 min
    Вид битрейта : Constant
    Битрейт : 384 kb/s
    Каналы : 6 channels
    Расположение каналов : Front: L C R, Side: L R, LFE
    Частота : 48.0 kHz
    Частота кадров : 31.250 FPS (1536 spf)
    Битовая глубина : 16 bits
    Метод сжатия : Lossy
    Размер потока : 379 MiB (8%)
    Заголовок : Dub
    Язык : Russian
    Default : Yes
    Forced : No
    Text #1
    Идентификатор : 3
    Формат : UTF-8
    Идентификатор кодека : S_TEXT/UTF8
    Идентификатор кодека/Информация : UTF-8 Plain Text
    Заголовок : Full
    Язык : Russian
    Default : No
    Forced : No
    Text #2
    Идентификатор : 4
    Формат : UTF-8
    Идентификатор кодека : S_TEXT/UTF8
    Идентификатор кодека/Информация : UTF-8 Plain Text
    Заголовок : комментарии режиссера
    Язык : Russian
    Default : No
    Forced : No
    [thumbnails]


    Last edited by Талямба on 2016-11-26 10:32; edited 1 time in total
  2. Longevity:
    3 years 9 months
    Posts:
    1
    Gender:
    Unknown
    Плачу
    09-Dec-2016 20:18 (after 13 days)
  3. Longevity:
    2 years 3 months
    Posts:
    2
    Gender:
    Unknown
    дайте скорости 10% и все(подключение к пирам)
    25-Jun-2018 22:34 (after 1 year 6 months)
  4. Longevity:
    2 years 1 month
    Posts:
    2
    Gender:
    Unknown
    Сайт умер чтоли? Качаю фильмы, ни одного раздающего... :(
    02-Aug-2018 21:57 (after 1 month 6 days)
  5. Longevity:
    4 years 1 month
    Posts:
    1512
    Gender:
    Male
    10058Сайт умер чтоли? Качаю фильмы, ни одного раздающего... :(
    ты чо,пъяный,у меня сервак постоянно на раздачи стоит... да и сейчас больше пяти человек на раздачи !
    03-Aug-2018 01:02 (after 3 hours)


You cannot post new topics in this forum
You cannot reply to topics in this forum
You cannot edit your posts in this forum
You cannot delete your posts in this forum
You cannot vote in polls in this forum
You cannot attach files in this forum
You cannot download files in this forum