Philizz - Video Yearmix (2019) Full HD 1080p | 60 fps NK - ELEFANTE (2019) Full HD 1080p | 60 fps Britney Spears - Oops! I Did It Again Uncut (2009) HD 1080p | 60 fps Snoop Dogg - Wet (2011) Full HD 1080p | 60 fps Madonna - Rebel Heart Tour (2016) Blu-Ray Rip 1080p | 72 fps Nicki Minaj - Anaconda (2014) BDRip 1080p | 60 fps IOWA - Бьёт Бит (2015) Full HD 1080p | 60 fps Katy Perry - E.T. ft. Kanye West (2011) WEBRip 1080p | 60 fps
  1. Longevity:
    6 years 7 months
    Posts:
    2414
    Gender:
    Male
    -Gwen Stefani - Make Me Like You (2016) Full HD 1080p | 60 fps- -Информация
    Исполнитель: Gwen Stefani
    Название: Make Me Like You
    Год выхода: 2016
    Продолжительность: 00:04:05

    Описание:
    Экс-солистка группы «No doubt» певица Гвен Стефани презентовала клип на песню «Make Me Like You».
    В клипе 46-летняя исполнительница предстает в образе голливудской дивы. А в одном из эпизодов катается на роликовых коньках. Композиция вошла в новый альбом Стефани «This Is How the Truth Feels».
    -Файл
    Кодек: MPEG4 | ISO/AVC | H.264 | [email protected]
    Формат: MKV
    Качество: Full HD 1080p | 60 fps
    Видео : 1920 x 1080 (1.778) | 59.940 fps 30.0 Мбит/сек
    Аудио : DTS | 1413 Кбит/сек | 48.0 KHz | 2.0 channels

    MediaInfo

    Видео
    Идентификатор : 1
    Формат : AVC
    Формат/Информация : Advanced Video Codec
    Профиль формата : [email protected]
    Параметр CABAC формата : Да
    Параметр ReFrames формата : 3 кадра
    Идентификатор кодека : V_MPEG4/ISO/AVC
    Продолжительность : 4 м. 5 с.
    Вид битрейта : Переменный
    Битрейт : 27,9 Мбит/сек
    Максимальный битрейт : 30,0 Мбит/сек
    Ширина : 1920 пикселей
    Высота : 1080 пикселей
    Соотношение сторон : 16:9
    Режим частоты кадров : Постоянный
    Частота кадров : 59,880 кадров/сек
    Частота кадров в оригинале : 59,940 кадров/сек
    Стандарт вещания : PAL
    Цветовое пространство : YUV
    Субдискретизация насыщенности : 4:2:0
    Битовая глубина : 8 бит
    Тип развёртки : Прогрессивная
    Бит/(Пиксели*Кадры) : 0.225
    Размер потока : 816 Мбайт (93%)
    Заголовок : www.60-fps.org
    Язык : English
    Default : Да
    Forced : Нет
    Основные цвета : BT.709
    Характеристики трансфера : BT.709
    Коэффициенты матрицы : BT.709
    colour_range : Limited
    Аудио
    Идентификатор : 2
    Формат : DTS
    Формат/Информация : Digital Theater Systems
    Режим : 16
    Параметр Endianness формата : Big
    Идентификатор кодека : A_DTS
    Продолжительность : 4 м. 5 с.
    Вид битрейта : Постоянный
    Битрейт : 1413 Кбит/сек
    Каналы : 2 канала
    Расположение каналов : Front: L R
    Частота : 48,0 КГц
    Битовая глубина : 16 бит
    Метод сжатия : С потерями
    Задержка видео : 83 мс.
    Размер потока : 41,3 Мбайт (5%)
    Язык : English
    Default : Да
    Forced : Нет
    DURATION : 00:04:05.248000000
    NUMBER_OF_FRAMES : 22992
    NUMBER_OF_BYTES : 43316928
    _STATISTICS_WRITING_APP : mkvmerge v7.6.0 ('Garden of Dreams') 32bit built on Feb 8 2015 12:51:39
    _STATISTICS_WRITING_DATE_UTC : 2017-02-16 07:44:21
    _STATISTICS_TAGS : BPS DURATION NUMBER_OF_FRAMES NUMBER_OF_BYTES

    Release was prepared by 60-fps.org



You cannot post new topics in this forum
You cannot reply to topics in this forum
You cannot edit your posts in this forum
You cannot delete your posts in this forum
You cannot vote in polls in this forum
You cannot attach files in this forum
You cannot download files in this forum