[Цитировать]
Kryl

«All Whos beware: He's mean and green!»- Информация
Название: Гринч - похититель Рождества
Оригинальное название: How the Grinch Stole Christmas
Год выхода: 2000
Жанр: фэнтези, комедия, семейный
Режиссер: Рон Ховард
Сценарий: Джефри Прайс, Питер С. Симен, Доктор Сюсс
Продюсер: Брайан Грейзер, Рон Ховард, Линда Филдс
В ролях: Джим Керри, Тейлор Момсен, Джефри Тэмбор, Кристин Барански, Билл Ирвин, Молли Шеннон, Клинт Ховард, Джош Райан Эванс, Мелинда Стерлинг, Рэйчел Уинфри
--Сюжет:

Жил-был в городе Ктограде человечек, и звали его — Гринч. Был он весь зеленый и волосатый, никто его не любил. Обиделся Гринч на ктовичей и ушел жить на одинокую, обдуваемую всеми ветрами гору. Сидел там в своей пещере и злился на весь свет. Больше всего Гринч ненавидел Рождество. В то время, как все население Ктограда веселилось от души, барометр и без того всегда плохого настроения Гринча показывал нечто ужасное.
Каждое Рождество становилось для зеленого отшельника страшной пыткой. И вот однажды злобный житель горы решил покончить с этим праздником раз и навсегда. Пока беззаботные ктовичи сладко спали впредпраздничную ночь, вероломный Гринч решил украсть у горожан их Рождество.
- - Страна: США, Германия
Продолжительность: 01:44:56

Файл
Кодек: MPEG4/ISO/AVC H.264
Формат: MKV
Качество: BDRip 720p | 60 fps
Видео: 1280 x 694 (1.844) | 59.940 fps | 10.0 Мбит/сек
Аудио 1: AC3 | 2.0 | 48 kHz | 192 kbps | 16 bit | Дубляж |
Аудио 2: AC3 | 5.1 | 48 kHz | 448 kbps | 16 bit | Многоголосый закадровый, Карусель #1 |
Аудио 3: AC3 | 5.1 | 48 kHz | 448 kbps | 16 bit | Многоголосый закадровый, Карусель #2 |
Аудио 4: AC3 | 5.1 | 48 kHz | 192 kbps | 16 bit | Многоголосый закадровый, Премьер-Видео |
Аудио 5: AC3 | 5.1 | 48 kHz | 448 kbps | 16 bit | Одноголосый закадровый, Ю.Живов |
Аудио 6: AC3 | 5.1 | 48 kHz | 448 kbps | 16 bit | ENG |
Субтитры: Russian (2 варинта), English
Переводы Карусели #1 и #2 отличаются как текстом, так и актерским составом.

MedifInfo

Видео
Идентификатор : 1
Формат : AVC
Формат/Информация : Advanced Video Codec
Профиль формата : High@L4.1
Параметр CABAC формата : Да
Параметр ReFrames формата : 3 кадра
Параметр GOP формата : M=3, N=59
Идентификатор кодека : V_MPEG4/ISO/AVC
Продолжительность : 1 ч. 44 м.
Вид битрейта : Переменный
Битрейт : 9720 Кбит/сек
Максимальный битрейт : 10000 Кбит/сек
Ширина : 1280 пикселей
Высота : 694 пикселя
Соотношение сторон : 1,85:1
Режим частоты кадров : Постоянный
Частота кадров : 59,880 кадров/сек
Частота кадров в оригинале : 59,940 кадров/сек
Стандарт вещания : PAL
Цветовое пространство : YUV
Субдискретизация насыщенности : 4:2:0
Битовая глубина : 8 бит
Тип развёртки : Прогрессивная
Бит/(Пиксели*Кадры) : 0.183
Размер потока : 7,12 Гбайт (80%)
Заголовок : www.60-fps.org
Язык : English
Default : Да
Forced : Нет
Основные цвета : BT.709
Характеристики трансфера : BT.709
Коэффициенты матрицы : BT.709
colour_range : Limited
Аудио #1
Идентификатор : 2
Формат : AC-3
Формат/Информация : Audio Coding 3
Расширение режима : CM (complete main)
Параметр Endianness формата : Big
Идентификатор кодека : A_AC3
Продолжительность : 1 ч. 44 м.
Вид битрейта : Постоянный
Битрейт : 192 Кбит/сек
Каналы : 2 канала
Расположение каналов : Front: L R
Частота : 48,0 КГц
Битовая глубина : 16 бит
Метод сжатия : С потерями
Размер потока : 144 Мбайт (2%)
Заголовок : Дубляж
Default : Нет
Forced : Нет
Аудио #2
Идентификатор : 3
Формат : AC-3
Формат/Информация : Audio Coding 3
Расширение режима : CM (complete main)
Параметр Endianness формата : Big
Идентификатор кодека : A_AC3
Продолжительность : 1 ч. 44 м.
Вид битрейта : Постоянный
Битрейт : 448 Кбит/сек
Каналы : 6 каналов
Расположение каналов : Front: L C R, Side: L R, LFE
Частота : 48,0 КГц
Битовая глубина : 16 бит
Метод сжатия : С потерями
Размер потока : 336 Мбайт (4%)
Заголовок : Многоголосый закадровый, Карусель #1
Язык : Russian
Default : Нет
Forced : Нет
Аудио #3
Идентификатор : 4
Формат : AC-3
Формат/Информация : Audio Coding 3
Расширение режима : CM (complete main)
Параметр Endianness формата : Big
Идентификатор кодека : A_AC3
Продолжительность : 1 ч. 44 м.
Вид битрейта : Постоянный
Битрейт : 448 Кбит/сек
Каналы : 6 каналов
Расположение каналов : Front: L C R, Side: L R, LFE
Частота : 48,0 КГц
Битовая глубина : 16 бит
Метод сжатия : С потерями
Размер потока : 336 Мбайт (4%)
Заголовок : Многоголосый закадровый, Карусель #2
Язык : Russian
Default : Нет
Forced : Нет
Аудио #4
Идентификатор : 5
Формат : AC-3
Формат/Информация : Audio Coding 3
Расширение режима : CM (complete main)
Параметр Endianness формата : Big
Идентификатор кодека : A_AC3
Продолжительность : 1 ч. 44 м.
Вид битрейта : Постоянный
Битрейт : 192 Кбит/сек
Каналы : 2 канала
Расположение каналов : Front: L R
Частота : 48,0 КГц
Битовая глубина : 16 бит
Метод сжатия : С потерями
Размер потока : 144 Мбайт (2%)
Заголовок : Многоголосый закадровый, Премьер-Видео
Язык : Russian
Default : Нет
Forced : Нет
Аудио #5
Идентификатор : 6
Формат : AC-3
Формат/Информация : Audio Coding 3
Расширение режима : CM (complete main)
Параметр Endianness формата : Big
Идентификатор кодека : A_AC3
Продолжительность : 1 ч. 44 м.
Вид битрейта : Постоянный
Битрейт : 448 Кбит/сек
Каналы : 6 каналов
Расположение каналов : Front: L C R, Side: L R, LFE
Частота : 48,0 КГц
Битовая глубина : 16 бит
Метод сжатия : С потерями
Размер потока : 336 Мбайт (4%)
Заголовок : Одноголосый закадровый, Ю.Живов
Язык : Russian
Default : Нет
Forced : Нет
Аудио #6
Идентификатор : 7
Формат : AC-3
Формат/Информация : Audio Coding 3
Расширение режима : CM (complete main)
Параметр Endianness формата : Big
Идентификатор кодека : A_AC3
Продолжительность : 1 ч. 44 м.
Вид битрейта : Постоянный
Битрейт : 448 Кбит/сек
Каналы : 6 каналов
Расположение каналов : Front: L C R, Side: L R, LFE
Частота : 48,0 КГц
Битовая глубина : 16 бит
Метод сжатия : С потерями
Размер потока : 336 Мбайт (4%)
Заголовок : ENG
Язык : English
Default : Нет
Forced : Нет
Текст #1
Идентификатор : 8
Формат : UTF-8
Идентификатор кодека : S_TEXT/UTF8
Идентификатор кодека/Информация : UTF-8 Plain Text
Заголовок : SDH
Язык : Russian
Default : Нет
Forced : Нет
Текст #2
Идентификатор : 9
Формат : UTF-8
Идентификатор кодека : S_TEXT/UTF8
Идентификатор кодека/Информация : UTF-8 Plain Text
Заголовок : subtitry.ru
Язык : Russian
Default : Нет
Forced : Нет
Текст #3
Идентификатор : 10
Формат : UTF-8
Идентификатор кодека : S_TEXT/UTF8
Идентификатор кодека/Информация : UTF-8 Plain Text
Язык : English
Default : Нет
Forced : Нет
Меню
00:00:00.000 : :1. A Whoville Christmas
00:03:38.383 : :2. Meet the Grinch
00:10:26.792 : :3. Condy Lou's Savior
00:17:50.818 : :4. Christmas, Why Can't I Find You?
00:19:21.951 : :5. No Place Like Home
00:23:36.498 : :6. The Grinch's Story
00:33:29.089 : :7. Cindy Lou's Candidate
00:36:54.795 : :8. The Invitation
00:44:05.434 : :9. Second Thoughts
00:47:12.788 : :10. The Holiday Cheermeister
00:52:58.215 : :11. The Grinch's Revenge
00:59:39.117 : :12. A Wonderful, Awful Idea
01:02:39.672 : :13. You're a Mean One, Mr. Grinch
01:07:04.353 : :14. Grinchy Claus
01:14:36.637 : :15. To Take Every Present
01:18:12.354 : :16. Christmas Destroyed
01:22:01.041 : :17. A Change of Heart
01:27:18.065 : :18. To Save Cindy Lou
01:30:21.623 : :19. Merry Christmas, Mr. Grinch
01:37:52.448 : :20. End Titles

Релиз подготовлен 60 - fps

 
Показать сообщения:    

Текущее время: 28-Май 00:16

Часовой пояс: UTC + 3


Вы не можете начинать темы
Вы не можете отвечать на сообщения
Вы не можете редактировать свои сообщения
Вы не можете удалять свои сообщения
Вы не можете голосовать в опросах
Вы не можете прикреплять файлы к сообщениям
Вы не можете скачивать файлы