[Цитировать]
izomsk

Грань будущего / Edge of Tomorrow (2014) BDRip 1080p | 3D-Video | HOU | 60 fps-«Живи. Умри. И снова»- Название: Грань будущего
Оригинальное название: Edge of Tomorrow
Год выпуска: 2014
Производство: США, Австралия / Warner Bros. Pictures, Village Roadshow Pictures
Жанр: Фантастика, Боевик
Режиссер: Даг Лайман
Продюсер: Джейсон Хоффс, Грегори Джейкобс, Том Лассалли
Актеры: Том Круз, Эмили Блант, Брендан Глисон, Билл Пэкстон, Джонас Армстронг, Тони Вэй, Кик Гарри, Франц Драмех, Драгомир Мрсич, Шарлотта Райли-О фильме:
В недалёком будущем раса инопланетян вторгается на Землю. Никакая армия в мире не может противостоять им. Майор Уильям Кейдж умирает в бою, но случается невозможное — он оказывается во временной петле. Раз за разом он попадает в один и тот же бой, сражается и умирает… снова и снова. И каждое повторяющееся сражение приближает его к разгадке того, как победить врага.- -
Дата мировой премьеры: 28 мая 2014, Швейцария
Дата российской премьеры: 5 июня 2014, «Каро-Премьер»
Дата выхода DVD релиза: 2 октября 2014, «CP Дистрибуция»
Дата выхода Blu-Ray релиза: 2 октября 2014, «CP Дистрибуция»
Продолжительность: 01:53:29-Файл
Кодек: MPEG4/ISO/AVC H.264
Формат: MKV
Качество: BDRip
Видео: 1920 x 1080 (1.78) at 57.542 fps 21 Мбит/сек
Аудио 01: AC-3 5.1 / 48 kHz / 640 kbps Русский (Дубляж)
Аудио 02: AC-3 5.1 / 48 kHz / 640 kbps Украинский (Дубляж)
Аудио 03: AC-3 5.1 / 48 kHz / 640 kbps Original English
Субтитры: Русский (Forced), Русский, English, Estonian, Latvian, Lithuanian-

MediaInfo:

General
Unique ID : 206471819090184310998292821475283241202 (0x9B5506A1C304925486EF0074BE7508F2)
Complete name : E:\Video\3D 60fps\Грань будущего 1080p 60fps 3d(HOU)\Грань будущего (2014) BDRip (3d HOU 1080p 60fps).mkv
Format : Matroska
Format version : Version 2
File size : 18.0 GiB
Duration : 1h 53mn
Overall bit rate : 22.7 Mbps
Movie name : EDGE_OF_TOMORROW.Title98.BlurayRip
Encoded date : UTC 2014-10-19 09:40:56
Writing application : mkvmerge v3.4.0 ('Rapunzel') сборка от May 18 2010 22:32:11
Writing library : libebml v0.8.0 + libmatroska v0.9.0
Video
ID : 1
Format : AVC
Format/Info : Advanced Video Codec
Format profile : High@L4.1
Format settings, CABAC : Yes
Format settings, ReFrames : 4 frames
Codec ID : V_MPEG4/ISO/AVC
Bit rate : 21.0 Mbps
Width : 1 920 pixels
Height : 1 080 pixels
Display aspect ratio : 16:9
Frame rate mode : Variable
Original frame rate : 57.542 fps
Color space : YUV
Chroma subsampling : 4:2:0
Bit depth : 8 bits
Scan type : Progressive
Bits/(Pixel*Frame) : 0.176
Writing library : x264 core 120 r2120kMod 0c7dab9
Encoding settings : cabac=1 / ref=4 / deblock=1:0:0 / analyse=0x3:0x113 / me=esa / subme=9 / psy=1 / fade_compensate=0.00 / psy_rd=1.00:0.00 / mixed_ref=1 / me_range=22 / chroma_me=1 / trellis=1 / 8x8dct=1 / cqm=0 / deadzone=21,11 / fast_pskip=1 / chroma_qp_offset=-2 / threads=12 / sliced_threads=1 / slices=12 / nr=0 / decimate=1 / interlaced=0 / bluray_compat=0 / constrained_intra=0 / bframes=9 / b_pyramid=2 / b_adapt=2 / b_bias=0 / direct=1 / weightb=1 / open_gop=0 / weightp=2 / keyint=250 / keyint_min=25 / scenecut=40 / intra_refresh=0 / rc=abr / mbtree=0 / bitrate=21000 / ratetol=1.0 / qcomp=0.60 / qpmin=10 / qpmax=51 / qpstep=4 / ip_ratio=1.40 / pb_ratio=1.30 / aq=1:1.00
Default : Yes
Forced : No
Audio #1
ID : 8
Format : AC-3
Format/Info : Audio Coding 3
Mode extension : CM (complete main)
Format settings, Endianness : Big
Codec ID : A_AC3
Duration : 1h 53mn
Bit rate mode : Constant
Bit rate : 640 Kbps
Channel(s) : 6 channels
Channel positions : Front: L C R, Side: L R, LFE
Sampling rate : 48.0 KHz
Bit depth : 16 bits
Compression mode : Lossy
Delay relative to video : 420ms
Stream size : 520 MiB (3%)
Title : Русский (Дубляж)
Language : Russian
Default : Yes
Forced : No
Audio #2
ID : 9
Format : AC-3
Format/Info : Audio Coding 3
Mode extension : CM (complete main)
Format settings, Endianness : Big
Codec ID : A_AC3
Duration : 1h 53mn
Bit rate mode : Constant
Bit rate : 640 Kbps
Channel(s) : 6 channels
Channel positions : Front: L C R, Side: L R, LFE
Sampling rate : 48.0 KHz
Bit depth : 16 bits
Compression mode : Lossy
Delay relative to video : 420ms
Stream size : 520 MiB (3%)
Title : Украинский (Дубляж)
Language : Ukrainian
Default : No
Forced : No
Audio #3
ID : 10
Format : AC-3
Format/Info : Audio Coding 3
Mode extension : CM (complete main)
Format settings, Endianness : Big
Codec ID : A_AC3
Duration : 1h 53mn
Bit rate mode : Constant
Bit rate : 640 Kbps
Channel(s) : 6 channels
Channel positions : Front: L C R, Side: L R, LFE
Sampling rate : 48.0 KHz
Bit depth : 16 bits
Compression mode : Lossy
Delay relative to video : 420ms
Stream size : 520 MiB (3%)
Title : Original English
Language : English
Default : No
Forced : No
Text #1
ID : 2
Format : VobSub
Muxing mode : zlib
Codec ID : S_VOBSUB
Codec ID/Info : The same subtitle format used on DVDs
Title : Русский (Forced)
Language : Russian
Default : Yes
Forced : No
Text #2
ID : 3
Format : VobSub
Muxing mode : zlib
Codec ID : S_VOBSUB
Codec ID/Info : The same subtitle format used on DVDs
Title : Русский
Language : Russian
Default : No
Forced : No
Text #3
ID : 4
Format : VobSub
Muxing mode : zlib
Codec ID : S_VOBSUB
Codec ID/Info : The same subtitle format used on DVDs
Title : English
Language : English
Default : No
Forced : No
Text #4
ID : 5
Format : VobSub
Muxing mode : zlib
Codec ID : S_VOBSUB
Codec ID/Info : The same subtitle format used on DVDs
Title : Estonian
Language : Estonian
Default : No
Forced : No
Text #5
ID : 6
Format : VobSub
Muxing mode : zlib
Codec ID : S_VOBSUB
Codec ID/Info : The same subtitle format used on DVDs
Title : Latvian
Language : Latvian
Default : No
Forced : No
Text #6
ID : 7
Format : VobSub
Muxing mode : zlib
Codec ID : S_VOBSUB
Codec ID/Info : The same subtitle format used on DVDs
Title : Lithuanian
Language : Lithuanian
Default : No
Forced : No
Menu
00:00:00.000 : en:(01)00:00:00:000
00:10:28.169 : en:(02)00:10:28:169
00:17:39.099 : en:(03)00:17:39:099
00:24:50.197 : en:(04)00:24:50:197
00:35:57.947 : en:(05)00:35:57:947
00:46:27.284 : en:(06)00:46:27:284
00:54:34.771 : en:(07)00:54:34:771
01:04:59.562 : en:(08)01:04:59:562
01:12:53.077 : en:(09)01:12:53:077
01:23:08.900 : en:(10)01:23:08:900
01:32:34.131 : en:(11)01:32:34:131
01:42:53.584 : en:(12)01:42:53:584
01:45:46.214 : en:(13)01:45:46:214
01:53:29.177 : en:(14)01:53:29:177

Время раздачи: Круглосуточно, до пяти сидов...

[Цитировать]
izomsk

Приятного просмотра!

[Цитировать]
Kryl

Спасибо ... :aa: :aa:

[Цитировать]
Гость

Однако.Вертикалка. :az: :aa:

[Цитировать]
mimok

502Однако.Вертикалка. :az: :aa:
самое то для пассивного 3д

[Цитировать]
Андрей 60

Достойно! Спасибо
 
Показать сообщения:    

Текущее время: 09-Дек 22:17

Часовой пояс: UTC + 3


Вы не можете начинать темы
Вы не можете отвечать на сообщения
Вы не можете редактировать свои сообщения
Вы не можете удалять свои сообщения
Вы не можете голосовать в опросах
Вы не можете прикреплять файлы к сообщениям
Вы не можете скачивать файлы