Горячие головы

-Название: Горячие головы
Оригинальное название: Hot Shots!
Год выпуска: 1991
Страна: США
Жанр: боевик, комедия, военный
Продолжительность: 01:24:47
Перевод: Дубляж
Субтитры: русские (Полные), английские (Полные)-Режиссер: Джим Абрахамс / Jim Abrahams-В ролях: Чарли Шин (Lt. Topper Harley / Rhett Butler / Superman), Кэри Элвис (Lt. Kent Gregory), Валерия Голино (Ramada Thompson / Scarlett O'Hara / Lois Lane), Ллойд Бриджес (Adm. Thomas «Tug» Benson), Кевин Данн (Lt. Cmdr. James Block), Джон Крайер (Jim «Wash Out» Pfaffenbach), Уильям О’Лири (Pete «Dead Meat» Thompson), Кристи Суонсон (Kowalski), Ефрем Цимбалист мл. (Wilson), Билл Ирвин (Buzz Harley), Хэйди Свидберг (Mary Thompson), Брюс А. Янг («Red» Herring)-Описание:
Анекдотичные ситуации на военной базе, где герои, сами того не замечая, пародируют самые известные фильмы, заставят вас безудержно хохотать на протяжении всего фильма. Их горячие головы производят такое количество несуразных идей, что находиться рядом с ними просто опасно для здоровья.-Рейтинг

imdb.com: 6.70 (63 777)
MPAA: PG-13 - Детям до 13 лет просмотр не желателен-Автор рипа:Tiberiumsun69
-Качество: BDRip 1080p / 60 FPS
Формат: MKV
Видео кодек: AVC
Аудио кодек:AC3
Видео: AVC, 1920x1040 (16:9), 14000 kbps, 59,940 fps, 0,117 bpp
Аудио №1: русский / AC3 / 2.0 / 48 kHz / 384 kbps / 16 bit |Дубляж Киностудия им. Горького|
Аудио №2: русский / AC3 / 2.0 / 48 kHz / 384 kbps / 16 bit |Двуголосый, закадровый НТВ|
Аудио №3: русский / AC3 / 2.0 / 48 kHz / 384 kbps / 16 bit |Многоголосый, закадровый ОРТ|
Аудио №4: русский / AC3 / 2.0 / 48 kHz / 384 kbps / 16 bit |Двухголосый, закадровый Премьер-видео|
Аудио №5: английский / AC3 / 5.1 / 48 kHz / 640 kbps / 16 bit
Навигация по главам: есть- -

MI

General
Unique ID : 206451196710838521510924691871503448042 (0x9B510DDEBD890542A22DCF94A27F77EA)
Complete name : A:1080p 60fpsГорячие головы 1080p 60fpsГорячие головы 1 1080p 60fps.mkv
Format : Matroska
Format version : Version 4 / Version 2
File size : 9.57 GiB
Duration : 1h 24mn
Overall bit rate : 16.2 Mbps
Movie name : Tiberiumsun69
Encoded date : UTC 2014-10-07 10:46:51
Writing application : mkvmerge v6.9.1 ('Blue Panther') 64bit built on Apr 18 2014 18:23:38
Writing library : libebml v1.3.0 + libmatroska v1.4.1
Video
ID : 1
Format : AVC
Format/Info : Advanced Video Codec
Format profile : High@L4.1
Format settings, CABAC : Yes
Format settings, ReFrames : 4 frames
Codec ID : V_MPEG4/ISO/AVC
Duration : 1h 24mn
Bit rate : 14.0 Mbps
Width : 1 920 pixels
Height : 1 040 pixels
Display aspect ratio : 16:9
Frame rate : 59.940 fps
Color space : YUV
Chroma subsampling : 4:2:0
Bit depth : 8 bits
Scan type : Progressive
Bits/(Pixel*Frame) : 0.117
Stream size : 8.09 GiB (85%)
Writing library : x264 core 130 r2273 b3065e6
Encoding settings : cabac=1 / ref=4 / deblock=1:-1:-1 / analyse=0x3:0 / me=umh / subme=9 / psy=1 / psy_rd=0.90:0.00 / mixed_ref=1 / me_range=42 / chroma_me=0 / trellis=2 / 8x8dct=1 / cqm=0 / deadzone=21,11 / fast_pskip=0 / chroma_qp_offset=-2 / threads=12 / lookahead_threads=1 / sliced_threads=0 / nr=0 / decimate=0 / interlaced=0 / bluray_compat=0 / constrained_intra=0 / bframes=5 / b_pyramid=2 / b_adapt=2 / b_bias=0 / direct=3 / weightb=1 / open_gop=0 / weightp=2 / keyint=250 / keyint_min=59 / scenecut=40 / intra_refresh=0 / rc_lookahead=60 / rc=2pass / mbtree=1 / bitrate=14000 / ratetol=1.0 / qcomp=0.80 / qpmin=0 / qpmax=69 / qpstep=4 / cplxblur=20.0 / qblur=0.5 / ip_ratio=1.40 / aq=1:0.80
Language : English
Default : Yes
Forced : No
Audio #1
ID : 2
Format : AC-3
Format/Info : Audio Coding 3
Mode extension : CM (complete main)
Codec ID : A_AC3
Duration : 1h 24mn
Bit rate mode : Constant
Bit rate : 384 Kbps
Channel(s) : 2 channels
Channel positions : Front: L R
Sampling rate : 48.0 KHz
Bit depth : 16 bits
Compression mode : Lossy
Stream size : 233 MiB (2%)
Title : Дубляж Киностудия им. Горького
Language : Russian
Default : Yes
Forced : No
Audio #2
ID : 3
Format : AC-3
Format/Info : Audio Coding 3
Mode extension : CM (complete main)
Codec ID : A_AC3
Duration : 1h 24mn
Bit rate mode : Constant
Bit rate : 384 Kbps
Channel(s) : 2 channels
Channel positions : Front: L R
Sampling rate : 48.0 KHz
Bit depth : 16 bits
Compression mode : Lossy
Stream size : 233 MiB (2%)
Title : Двуголосый, закадровый НТВ
Language : Russian
Default : No
Forced : No
Audio #3
ID : 4
Format : AC-3
Format/Info : Audio Coding 3
Mode extension : CM (complete main)
Codec ID : A_AC3
Duration : 1h 24mn
Bit rate mode : Constant
Bit rate : 384 Kbps
Channel(s) : 2 channels
Channel positions : Front: L R
Sampling rate : 48.0 KHz
Bit depth : 16 bits
Compression mode : Lossy
Stream size : 233 MiB (2%)
Title : Многоголосый, закадровый ОРТ
Language : Russian
Default : No
Forced : No
Audio #4
ID : 5
Format : AC-3
Format/Info : Audio Coding 3
Mode extension : CM (complete main)
Codec ID : A_AC3
Duration : 1h 24mn
Bit rate mode : Constant
Bit rate : 384 Kbps
Channel(s) : 2 channels
Channel positions : Front: L R
Sampling rate : 48.0 KHz
Bit depth : 16 bits
Compression mode : Lossy
Stream size : 233 MiB (2%)
Title : Двухголосый, закадровый Премьер-видео
Language : Russian
Default : No
Forced : No
Audio #5
ID : 6
Format : AC-3
Format/Info : Audio Coding 3
Mode extension : CM (complete main)
Codec ID : A_AC3
Duration : 1h 24mn
Bit rate mode : Constant
Bit rate : 640 Kbps
Channel(s) : 6 channels
Channel positions : Front: L C R, Side: L R, LFE
Sampling rate : 48.0 KHz
Bit depth : 16 bits
Compression mode : Lossy
Stream size : 388 MiB (4%)
Title : Оригинал
Language : English
Default : No
Forced : No
Text #1
ID : 7
Format : UTF-8
Codec ID : S_TEXT/UTF8
Codec ID/Info : UTF-8 Plain Text
Title : Полные
Language : Russian
Default : No
Forced : No
Text #2
ID : 8
Format : UTF-8
Codec ID : S_TEXT/UTF8
Codec ID/Info : UTF-8 Plain Text
Title : Полные
Language : English
Default : No
Forced : No
Menu
00:00:00.000 : :Chapter 01
00:02:22.267 : :Chapter 03
00:04:50.331 : :Chapter 05
00:08:06.944 : :Chapter 07
00:10:09.650 : :Chapter 09
00:11:13.214 : :Chapter 11
00:18:33.028 : :Chapter 13
00:21:34.584 : :Chapter 15
00:26:19.744 : :Chapter 17
00:29:02.449 : :Chapter 19
00:35:13.569 : :Chapter 21
00:37:50.518 : :Chapter 23
00:46:03.635 : :Chapter 25
00:48:37.080 : :Chapter 27
00:53:36.338 : :Chapter 29
00:55:57.729 : :Chapter 31
00:58:52.111 : :Chapter 33
01:04:12.473 : :Chapter 35
01:06:26.941 : :Chapter 37
01:08:35.277 : :Chapter 39
01:11:46.510 : :Chapter 41
01:16:46.768 : :Chapter 43
01:18:45.137 : :Chapter 45
01:19:54.956 : :Chapter 47
01:24:46.873 : :Chapter 48

Скриншоты

Горячие головы 2

-Название: Горячие головы 2
Оригинальное название: Hot Shots! Part Deux
Год выпуска: 1993
Страна: США
Жанр: боевик, комедия, военный
Продолжительность: 01:28:32
Перевод: Дубляж
Субтитры: русские (Полные), английские (Полные)-Режиссер: Джим Абрахамс / Jim Abrahams-В ролях: Чарли Шин (Topper Harley), Валерия Голино (Ramada Rodham Hayman), Ллойд Бриджес (Tug Benson), Ричард Кренна (Col. Denton Walters), Бренда Бакки (Michelle Rodham Huddleston), Мигель Феррер (Harbinger), Роуэн Эткинсон (Dexter Hayman), Джерри Халева (Saddam Hussein), Дэвид Уол (Gerou), Митч Райан (Gray Edwards), Майкл Коляр (Williams), Райан Стайлз (Rabinowitz)-Описание:
На этот раз пилот-ас Топпер Харли, покинув службу, живет в далеком тибетском монастыре, где он нашел гармонию внутри себя, сбалансировав свой Инь и Янь. Но стране снова нужен герой.
И он, с неохотой покидая полюбившихся ему монахов, возвращается на службу. Ему поручается секретное задание по спасению заложников из лап Саддама Хусейна. Но к всеобщей радости, Топпер - необычный человек, который все переворачивает с ног на голову.-Рейтинг

imdb.com: 6.50 (54 257)
MPAA: PG-13 - Детям до 13 лет просмотр не желателен-Автор рипа:Tiberiumsun69
-Качество: BDRip 1080p / 60 FPS
Формат: MKV
Видео кодек: AVC
Аудио кодек:AC3
Видео: AVC, 1920x1040 (16:9), 14000 kbps, 59,940 fps, 0,117 bpp
Аудио №1: русский / AC3 / 2.0 / 48 kHz / 384 kbps / 16 bit |Дубляж Киностудия им. Горького|
Аудио №2: русский / AC3 / 2.0 / 48 kHz / 384 kbps / 16 bit |Двухголосый, закадровый НТВ+|
Аудио №3: русский / AC3 / 2.0 / 48 kHz / 384 kbps / 16 bit |Многоголосый, закадровый ОРТ|
Аудио №4: русский / AC3 / 2.0 / 48 kHz / 384 kbps / 16 bit |Двухголосый, закадровый Премьер-видео|
Аудио №5: английский / AC3 / 4 / 48 kHz / 640 kbps / 16 bit
Навигация по главам: есть- -

MI

General
Unique ID : 230522077886253173493849869097184707420 (0xAD6CEFF08E73A7B9B73211FE05FAC35C)
Complete name : A:1080p 60fpsГорячие головы 1080p 60fpsГорячие головы 2 1080p 60fps.mkv
Format : Matroska
Format version : Version 4 / Version 2
File size : 10.00 GiB
Duration : 1h 28mn
Overall bit rate : 16.2 Mbps
Movie name : Tiberiumsun69
Encoded date : UTC 2014-10-07 11:03:15
Writing application : mkvmerge v6.9.1 ('Blue Panther') 64bit built on Apr 18 2014 18:23:38
Writing library : libebml v1.3.0 + libmatroska v1.4.1
Video
ID : 1
Format : AVC
Format/Info : Advanced Video Codec
Format profile : High@L4.1
Format settings, CABAC : Yes
Format settings, ReFrames : 4 frames
Codec ID : V_MPEG4/ISO/AVC
Duration : 1h 28mn
Bit rate : 14.0 Mbps
Width : 1 920 pixels
Height : 1 040 pixels
Display aspect ratio : 16:9
Frame rate : 59.940 fps
Color space : YUV
Chroma subsampling : 4:2:0
Bit depth : 8 bits
Scan type : Progressive
Bits/(Pixel*Frame) : 0.117
Stream size : 8.45 GiB (85%)
Writing library : x264 core 130 r2273 b3065e6
Encoding settings : cabac=1 / ref=4 / deblock=1:-1:-1 / analyse=0x3:0 / me=umh / subme=9 / psy=1 / psy_rd=0.90:0.00 / mixed_ref=1 / me_range=42 / chroma_me=0 / trellis=2 / 8x8dct=1 / cqm=0 / deadzone=21,11 / fast_pskip=0 / chroma_qp_offset=-2 / threads=12 / lookahead_threads=1 / sliced_threads=0 / nr=0 / decimate=0 / interlaced=0 / bluray_compat=0 / constrained_intra=0 / bframes=5 / b_pyramid=2 / b_adapt=2 / b_bias=0 / direct=3 / weightb=1 / open_gop=0 / weightp=2 / keyint=250 / keyint_min=59 / scenecut=40 / intra_refresh=0 / rc_lookahead=60 / rc=2pass / mbtree=1 / bitrate=14000 / ratetol=1.0 / qcomp=0.80 / qpmin=0 / qpmax=69 / qpstep=4 / cplxblur=20.0 / qblur=0.5 / ip_ratio=1.40 / aq=1:0.80
Language : English
Default : Yes
Forced : No
Audio #1
ID : 2
Format : AC-3
Format/Info : Audio Coding 3
Mode extension : CM (complete main)
Codec ID : A_AC3
Duration : 1h 28mn
Bit rate mode : Constant
Bit rate : 384 Kbps
Channel(s) : 2 channels
Channel positions : Front: L R
Sampling rate : 48.0 KHz
Bit depth : 16 bits
Compression mode : Lossy
Stream size : 243 MiB (2%)
Title : Дубляж Киностудия им. Горького
Language : Russian
Default : Yes
Forced : No
Audio #2
ID : 3
Format : AC-3
Format/Info : Audio Coding 3
Mode extension : CM (complete main)
Codec ID : A_AC3
Duration : 1h 28mn
Bit rate mode : Constant
Bit rate : 384 Kbps
Channel(s) : 2 channels
Channel positions : Front: L R
Sampling rate : 48.0 KHz
Bit depth : 16 bits
Compression mode : Lossy
Stream size : 243 MiB (2%)
Title : Двухголосый, закадровый НТВ+
Language : Russian
Default : No
Forced : No
Audio #3
ID : 4
Format : AC-3
Format/Info : Audio Coding 3
Mode extension : CM (complete main)
Codec ID : A_AC3
Duration : 1h 28mn
Bit rate mode : Constant
Bit rate : 384 Kbps
Channel(s) : 2 channels
Channel positions : Front: L R
Sampling rate : 48.0 KHz
Bit depth : 16 bits
Compression mode : Lossy
Stream size : 243 MiB (2%)
Title : Многоголосый, закадровый ОРТ
Language : Russian
Default : No
Forced : No
Audio #4
ID : 5
Format : AC-3
Format/Info : Audio Coding 3
Mode extension : CM (complete main)
Codec ID : A_AC3
Duration : 1h 28mn
Bit rate mode : Constant
Bit rate : 384 Kbps
Channel(s) : 2 channels
Channel positions : Front: L R
Sampling rate : 48.0 KHz
Bit depth : 16 bits
Compression mode : Lossy
Stream size : 243 MiB (2%)
Title : Двухголосый, закадровый Премьер-видео
Language : Russian
Default : No
Forced : No
Audio #5
ID : 6
Format : AC-3
Format/Info : Audio Coding 3
Mode extension : CM (complete main)
Codec ID : A_AC3
Duration : 1h 28mn
Bit rate mode : Constant
Bit rate : 640 Kbps
Channel(s) : 4 channels
Channel positions : Front: L C R, Side: C
Sampling rate : 48.0 KHz
Bit depth : 16 bits
Compression mode : Lossy
Stream size : 405 MiB (4%)
Title : Оригинал
Language : English
Default : No
Forced : No
Text #1
ID : 7
Format : UTF-8
Codec ID : S_TEXT/UTF8
Codec ID/Info : UTF-8 Plain Text
Title : Полные
Language : Russian
Default : No
Forced : No
Text #2
ID : 8
Format : UTF-8
Codec ID : S_TEXT/UTF8
Codec ID/Info : UTF-8 Plain Text
Title : Полные
Language : English
Default : No
Forced : No
Menu
00:00:00.000 : en:Chapter 00
00:04:57.797 : en:Chapter 01
00:06:51.160 : en:Chapter 02
00:09:33.406 : en:Chapter 03
00:18:39.868 : en:Chapter 04
00:21:46.888 : en:Chapter 05
00:26:33.216 : en:Chapter 06
00:35:22.203 : en:Chapter 07
00:43:25.144 : en:Chapter 08
00:51:25.123 : en:Chapter 09
00:52:48.874 : en:Chapter 10
01:00:13.109 : en:Chapter 11
01:06:49.255 : en:Chapter 12
01:12:16.498 : en:Chapter 13
01:15:38.575 : en:Chapter 14
01:20:19.731 : en:Chapter 15
01:23:08.274 : en:Chapter 16
01:23:56.990 : en:Chapter 17

Скриншоты

Просьба к переливающим на другие сайты, в оформлении указывайте пожалуйста авторство рипа - Tiberiumsun69
 
Показать сообщения:    

Текущее время: 02-Дек 21:06

Часовой пояс: UTC + 3


Вы не можете начинать темы
Вы не можете отвечать на сообщения
Вы не можете редактировать свои сообщения
Вы не можете удалять свои сообщения
Вы не можете голосовать в опросах
Вы не можете прикреплять файлы к сообщениям
Вы не можете скачивать файлы