[Цитировать]
Kryl

Город героев / Big Hero 6 (2014) BDRip 720p | 60fps-- Информация о фильме
Название: Город героев
Оригинальное название: Big Hero 6
Год выхода: 2014
Жанр: мультфильм, фантастика, комедия, семейный, боевик
Режиссер: Дон Холл, Крис Уильямс
Сценарий: Джордан Робертс, Дэниел Герсон, Роберт Л. Бейрд, ...
Роли озвучивали: Райан Поттер, Скотт Эдсит, Джейми Чунг, ТиДжей Миллер, Дженесис Родригес, Дэймон Уайанс мл., Майя Рудольф, Джеймс Кромуэлл, Алан Тьюдик, Чарльз Адлер
----О фильме:
Юный Хиро Хамада — прирожденный изобретатель и гений конструирования роботов. Вместе со старшим братом Тадаши они воплощают в жизнь самые передовые идеи в Техническом университете города будущего Сан-Франсокио. После серии загадочных событий друзья оказываются в центре коварного заговора. Отчаявшись, Хиро решает использовать веселого и добродушного экспериментального робота Бэймакса, перепрограммировав его в неуязвимую боевую машину.- - Страна: США
Продолжительность: 01:41:52
--Файл
Кодек: MPEG4/ISO/AVC H.264
Формат: MKV
Качество: BDRip 720p
Видео:
1280x536 | 59.940 fps | 4.3 Мбит/сек-- Аудио 1: AC3 | 2.0 | 48 kHz | 192 kbps | 16 bit |Дубляж (чистый звук)|
Аудио 2: AC3 | 5.1 | 48 kHz | 640 kbps | 16 bit |английский|
Субтитры: Русские | Полные, Английские | Полные
Чаптеры (Главы): Есть

MedifInfo

Video
ID : 1
Format : AVC
Format/Info : Advanced Video Codec
Format profile : High@L4.1
Format settings, CABAC : Yes
Format settings, ReFrames : 9 frames
Codec ID : V_MPEG4/ISO/AVC
Duration : 1h 41mn
Bit rate : 4 375 Kbps
Width : 1 280 pixels
Height : 536 pixels
Display aspect ratio : 2.40:1
Frame rate mode : Constant
Frame rate : 59.880 fps
Original frame rate : 59.940 fps
Color space : YUV
Chroma subsampling : 4:2:0
Bit depth : 8 bits
Scan type : Progressive
Bits/(Pixel*Frame) : 0.106
Stream size : 3.11 GiB (82%)
Writing library : x264 core 130 r2273 b3065e6
Encoding settings : cabac=1 / ref=9 / deblock=1:0:0 / analyse=0x3:0x133 / me=umh / subme=11 / psy=1 / psy_rd=1.00:0.00 / mixed_ref=1 / me_range=28 / chroma_me=1 / trellis=2 / 8x8dct=1 / cqm=0 / deadzone=21,11 / fast_pskip=0 / chroma_qp_offset=-2 / threads=12 / lookahead_threads=1 / sliced_threads=0 / nr=0 / decimate=1 / interlaced=0 / bluray_compat=0 / constrained_intra=0 / bframes=5 / b_pyramid=2 / b_adapt=2 / b_bias=0 / direct=3 / weightb=1 / open_gop=0 / weightp=2 / keyint=250 / keyint_min=25 / scenecut=40 / intra_refresh=0 / rc=crf / mbtree=0 / crf=18.0 / qcomp=0.60 / qpmin=0 / qpmax=69 / qpstep=4 / ip_ratio=1.40 / pb_ratio=1.30 / aq=2:0.90
Language : English
Default : Yes
Forced : No
Audio #1
ID : 2
Format : AC-3
Format/Info : Audio Coding 3
Mode extension : CM (complete main)
Format settings, Endianness : Big
Codec ID : A_AC3
Duration : 1h 41mn
Bit rate mode : Constant
Bit rate : 192 Kbps
Channel(s) : 2 channels
Channel positions : Front: L R
Sampling rate : 48.0 KHz
Bit depth : 16 bits
Compression mode : Lossy
Stream size : 140 MiB (4%)
Title : Dub clear sound
Language : Russian
Default : Yes
Forced : No
Audio #2
ID : 3
Format : AC-3
Format/Info : Audio Coding 3
Mode extension : CM (complete main)
Format settings, Endianness : Big
Codec ID : A_AC3
Duration : 1h 41mn
Bit rate mode : Constant
Bit rate : 640 Kbps
Channel(s) : 6 channels
Channel positions : Front: L C R, Side: L R, LFE
Sampling rate : 48.0 KHz
Bit depth : 16 bits
Compression mode : Lossy
Stream size : 466 MiB (12%)
Title : Eng
Language : English
Default : No
Forced : No
Text #1
ID : 4
Format : UTF-8
Codec ID : S_TEXT/UTF8
Codec ID/Info : UTF-8 Plain Text
Title : full
Language : Russian
Default : No
Forced : No
Text #2
ID : 5
Format : UTF-8
Codec ID : S_TEXT/UTF8
Codec ID/Info : UTF-8 Plain Text
Title : full
Language : English
Default : No
Forced : No
Menu
00:00:00.000 : en:00:00:00.000
00:07:15.685 : en:00:07:15.685
00:14:37.835 : en:00:14:37.835
00:21:49.183 : en:00:21:49.183
00:24:32.888 : en:00:24:32.888
00:29:34.731 : en:00:29:34.731
00:36:58.091 : en:00:36:58.091
00:44:18.322 : en:00:44:18.322
00:50:49.088 : en:00:50:49.088
00:54:33.020 : en:00:54:33.020
01:00:44.140 : en:01:00:44.140
01:07:12.612 : en:01:07:12.612
01:11:54.644 : en:01:11:54.644
01:16:26.665 : en:01:16:26.665
01:24:44.162 : en:01:24:44.162
01:31:52.757 : en:01:31:52.757

Релиз подготовлен 60 - fps

[Цитировать]
ZHz

опа, хорошее качество вышло

[Цитировать]
Kryl

1845опа, хорошее качество вышло
Это не мое ....

[Цитировать]
ZHz

1847
1845опа, хорошее качество вышло
Это не мое ....
я знаю, просто не думал, что так скоро выйдет

[Цитировать]
MichaelBFG

крутяк
 
Показать сообщения:    

Текущее время: 09-Дек 22:19

Часовой пояс: UTC + 3


Вы не можете начинать темы
Вы не можете отвечать на сообщения
Вы не можете редактировать свои сообщения
Вы не можете удалять свои сообщения
Вы не можете голосовать в опросах
Вы не можете прикреплять файлы к сообщениям
Вы не можете скачивать файлы