Топ Топиков за 24 часа
 
SKILLED SLUT LOVES HER JOB (2017) Full HD 1080p | 60 fps SASHA FOXXX BLOWJOB (2017) Full HD 1080p | 60 fps BIG ASS CHICKS IN ACTION (2017) Full HD 1080p | 60 fps HOT BLACK GIRLS CREAMPIED(2017) Full HD 1080p | 60 fps DVJ BAZUKA - Tutti Frutti (2017) WEBRip 1080p | 60 fps Couple (2016) Full HD 1080p | 60 fps The Lesbian Bachelorette Episode 4 - Unison (2016) HD 1080p | 60 fps Dedicated Pledge (2017) Full HD 1080p | 60 fps Dakota Skye (2014) HD 720p | 60 fps Anita Bellini - Doubled Up (2015) HD 1080p | 60 fps Study Buddies (2016) HD 1080p | 60 fps Megan Rain (2017) Full HD 1080p | 60 fps
  1. Стаж:
    3 года 1 месяц
    Сообщений:
    2086
    Пол:
    Мужской
     
    Gorgeous Young Girlfriends Try Anal Together (2016) HD 1080p | 60 fps- Информация о ролике
    Название: Gorgeous Young Girlfriends Try Anal Together
    Год выхода: 2016
    Жанр: Anal, Threesome, FFM, All Sex
    В ролях: Alex Grey, Karla Kush
    Продолжительность: 00:41:29
    - Файл
    Кодек: MPEG4/ISO/AVC H.264
    Формат: MKV
    Качество: HD 1080p
    Видео: 1920 x 1080 (1.778) | 59.940 fps | 15.0 Мбит/сек
    Аудио: AC3 | 2.0 | 48.0 kHz | 192 kbps | 16 bit

    MedifInfo

    Видео
    Идентификатор : 1
    Формат : AVC
    Формат/Информация : Advanced Video Codec
    Профиль формата : High@L4.2
    Параметр CABAC формата : Да
    Параметр ReFrames формата : 3 кадра
    Идентификатор кодека : V_MPEG4/ISO/AVC
    Продолжительность : 41 м.
    Вид битрейта : Переменный
    Битрейт : 14,7 Мбит/сек
    Максимальный битрейт : 15,0 Мбит/сек
    Ширина : 1920 пикселей
    Высота : 1080 пикселей
    Соотношение сторон : 16:9
    Режим частоты кадров : Постоянный
    Частота кадров : 59,880 кадров/сек
    Частота кадров в оригинале : 59,940 кадров/сек
    Стандарт вещания : PAL
    Цветовое пространство : YUV
    Субдискретизация насыщенности : 4:2:0
    Битовая глубина : 8 бит
    Тип развёртки : Прогрессивная
    Бит/(Пиксели*Кадры) : 0.118
    Размер потока : 4,26 Гбайт (97%)
    Заголовок : www.60-fps.org
    Язык : English
    Default : Да
    Forced : Нет
    Основные цвета : BT.709
    Характеристики трансфера : BT.709
    Коэффициенты матрицы : BT.709
    colour_range : Limited
    Аудио
    Идентификатор : 2
    Формат : AC-3
    Формат/Информация : Audio Coding 3
    Расширение режима : CM (complete main)
    Параметр Endianness формата : Big
    Идентификатор кодека : A_AC3
    Продолжительность : 41 м.
    Вид битрейта : Постоянный
    Битрейт : 192 Кбит/сек
    Каналы : 2 канала
    Расположение каналов : Front: L R
    Частота : 48,0 КГц
    Битовая глубина : 16 бит
    Метод сжатия : С потерями
    Размер потока : 57,0 Мбайт (1%)
    Язык : English
    Default : Да
    Forced : Нет

    Скриншоты

    Релиз подготовлен 60 - fps



Вы не можете начинать темы
Вы не можете отвечать на сообщения
Вы не можете редактировать свои сообщения
Вы не можете удалять свои сообщения
Вы не можете голосовать в опросах
Вы не можете прикреплять файлы к сообщениям
Вы не можете скачивать файлы